Кунг-фу Панда 4 / Kung Fu Panda 4 (Майк Митчелл, Стефани Стайн) [2024 г., Мультфильм, боевик, комедия, приключения, семейный, полнометражный, WEBRip 1080p] Лицензия

Автор Сообщение
rastor ®

Стаж: 15 лет
Сообщений: 5559

Создавать темы rastor ® написал(а)
30-Мар-2024 22:21
Кунг-фу Панда 4Kung Fu Panda 4 Год выпуска: 2024
Страна: США, Китай
Жанр: Мультфильм, боевик, комедия, приключения, семейный, полнометражный
Продолжительность: 01:29:50
Перевод: Профессиональный (полное дублирование)-Режиссер: Майк Митчелл, Стефани Стайн-В ролях: Джек Блэк, Аквафина, Виола Дэвис, Дастин Хоффман, Брайан Крэнстон, Джеймс Хонг, Иэн МакШейн, Ке Хюи Куан, Ронни Чиэн, Лори Тань Чинн-Описание: По готовится стать духовным лидером своей Долины Мира, но ему также нужен кто-то, кто займет его место Воина Дракона. Таким образом, он будет обучать нового практикующего кунг-фу для этого места и столкнется со злодеем по имени Хамелеон, который вызывает злодеев из прошлого.--Качество: WEBRip 1080p
Формат: MKV
Видео кодек: H.264
Аудио кодек: AC3
Видео: 1920x804 24fps 4000kbps
Аудио: 48kHz 6ch 448kbps

MediaInfo

Формат : Matroska
Версия формата : Version 4 / Version 2
Размер файла : 2,79 Гбайт
Продолжительность : 1 ч. 29 м.
Общий поток : 4450 Кбит/сек
Название фильма : Кунг-фу.Панда 4.2024.WEBRip.[1080p].NNMClub
Дата кодирования : UTC 2024-03-30 06:47:01
Программа кодирования : mkvmerge v8.3.0 ('Over the Horizon') 64bit
Библиотека кодирования : libebml v1.3.1 + libmatroska v1.4.2
DURATION : 01:29:50.016000000
NUMBER_OF_FRAMES : 168438
NUMBER_OF_BYTES : 301840896
_STATISTICS_WRITING_APP : mkvmerge v8.3.0 ('Over the Horizon') 64bit
_STATISTICS_WRITING_DATE_UTC : 2024-03-30 06:47:01
_STATISTICS_TAGS : BPS DURATION NUMBER_OF_FRAMES NUMBER_OF_BYTES
Видео
Идентификатор : 1
Формат : AVC
Формат/Информация : Advanced Video Codec
Профиль формата : High@L4.0
Параметр CABAC формата : Да
Параметр ReFrames формата : 1 кадр
Идентификатор кодека : V_MPEG4/ISO/AVC
Продолжительность : 1 ч. 29 м.
Битрейт : 4000 Кбит/сек
Ширина : 1920 пикселей
Высота : 804 пикселя
Соотношение сторон : 2,40:1
Режим частоты кадров : Постоянный
Частота кадров : 24,000 кадра/сек
Цветовое пространство : YUV
Субдискретизация насыщенности : 4:2:0
Битовая глубина : 8 бит
Тип развёртки : Прогрессивная
Бит/(Пиксели*Кадры) : 0.108
Размер потока : 2,46 Гбайт (88%)
Библиотека кодирования : x264 core 158 r2984 3759fcb
Настройки программы : cabac=1 / ref=1 / deblock=1:0:0 / analyse=0x3:0x113 / me=hex / subme=2 / psy=1 / psy_rd=1.00:0.00 / mixed_ref=0 / me_range=16 / chroma_me=1 / trellis=0 / 8x8dct=1 / cqm=0 / deadzone=21,11 / fast_pskip=1 / chroma_qp_offset=0 / threads=6 / lookahead_threads=2 / sliced_threads=0 / nr=0 / decimate=1 / interlaced=0 / bluray_compat=0 / constrained_intra=0 / bframes=0 / weightp=1 / keyint=24 / keyint_min=2 / scenecut=40 / intra_refresh=0 / rc_lookahead=10 / rc=cbr / mbtree=1 / bitrate=4000 / ratetol=1.0 / qcomp=0.60 / qpmin=0 / qpmax=69 / qpstep=4 / vbv_maxrate=4000 / vbv_bufsize=6000 / nal_hrd=none / filler=0 / ip_ratio=1.40 / aq=1:1.00
Язык : English
Default : Да
Forced : Нет
Аудио
Идентификатор : 2
Формат : AC-3
Формат/Информация : Audio Coding 3
Расширение режима : CM (complete main)
Параметр Endianness формата : Big
Идентификатор кодека : A_AC3
Продолжительность : 1 ч. 29 м.
Вид битрейта : Постоянный
Битрейт : 448 Кбит/сек
Каналы : 6 каналов
Расположение каналов : Front: L C R, Side: L R, LFE
Частота : 48,0 КГц
Битовая глубина : 16 бит
Метод сжатия : С потерями
Задержка видео : -5 мс.
Размер потока : 288 Мбайт (10%)
Язык : Russian
Default : Да
Forced : Нет
Профиль  ЛС 
isrura

Стаж: 15 лет
Сообщений: 8
Откуда: Уфа

Создавать темы isrura написал(а)
09-Апр-2024 19:39 (спустя 9 дней)
Уважаемый, rastor ®! Подскажи пожалуйста озвучивает Галустян ?
Профиль  ЛС 
isrura

Стаж: 15 лет
Сообщений: 8
Откуда: Уфа

Создавать темы isrura написал(а)
09-Апр-2024 19:46 (спустя 6 минут)
Дочь смотрела в Киномаксе "Планета" озвучивал не Галустян, расстроилась очень
Профиль  ЛС 
Рустик

Стаж: 14 лет
Сообщений: 73
Откуда: ??

Создавать темы Рустик написал(а)
24-Апр-2024 00:41 (спустя 14 дней)
rastor, спасибо, уважаемый господин!
Профиль  ЛС 
Показать сообщения:     

Вы не можете начинать темы
Вы не можете отвечать на сообщения
Вы не можете редактировать свои сообщения
Вы не можете удалять свои сообщения
Вы не можете голосовать в опросах
Вы не можете прикреплять файлы к сообщениям
Вы не можете скачивать файлы

Текущее время: 21-Июл 22:27
Часовой пояс: UTC + 5