Холоп 2 (Клим Шипенко) [2023 г., Комедия, приключения, WEB-DL 1080p] Лицензия

Автор Сообщение
rastor ®

Стаж: 15 лет
Сообщений: 5559

Создавать темы rastor ® написал(а)
10-Мар-2024 14:38
Холоп 2 Год выпуска: 2023
Страна: Россия
Жанр: Комедия, приключения
Продолжительность: 01:54:17
Перевод: Не требуется
Cубтитры: Русские-Режиссер: Клим Шипенко-В ролях: Аглая Тарасова, Милош Бикович, Александр Самойленко, Иван Охлобыстин, Мария Миронова мл., Олег Комаров (II), Ольга Дибцева, Кирилл Нагиев, Сергей Соцердотский, Софья Зайка, Михаил Бабичев, Наталья Рогожкина, Павел Деревянко-Описание: Гриша, бывший мажор, побывавший холопом и ставший человеком, после путешествия в «прошлое» чутко реагирует на любую несправедливость. И, конечно, не может пройти мимо беспредела, который творит наглая и избалованная Катя. Ничего удивительного, что вскоре мажорка обнаруживает себя в другом времени.--Качество: WEB-DL 1080p
Формат: MKV
Видео кодек: H.264
Аудио кодек: AC3
Видео: 1920x804 25fps 6000Kbps
Аудио:
Аудио Rus: 48kHz 6ch 448Kbps
Аудио Rus: 48kHz 6ch 448Kbps

MediaInfo

Формат : Matroska
Версия формата : Version 4
Размер файла : 5,68 Гбайт
Продолжительность : 1 ч. 54 м.
Общий поток : 7 120 Кбит/сек
Частота кадров : 25,000 кадров/сек
Название фильма : Holop.2.2023.WEB-DL.1080p
Дата кодирования : 2024-03-08 20:06:53 UTC
Программа кодирования : mkvmerge v80.0 ('Roundabout') 64-bit
Библиотека кодирования : libebml v1.4.4 + libmatroska v1.7.1
Обложка : Yes
Attachments : Cover.jpg
Видео
Идентификатор : 1
Формат : AVC
Формат/Информация : Advanced Video Codec
Профиль формата : Progressive High@L4
Настройки формата : CABAC / 5 Ref Frames
Параметр CABAC формата : Да
Параметр RefFrames формата : 5 кадров
Идентификатор кодека : V_MPEG4/ISO/AVC
Продолжительность : 1 ч. 54 м.
Битрейт : 6 000 Кбит/сек
Ширина : 1 920 пикселей
Высота : 804 пикселя
Соотношение сторон : 2,40:1
Режим частоты кадров : Постоянный
Частота кадров : 25,000 кадров/сек
Цветовое пространство : YUV
Субдискретизация насыщенности : 4:2:0
Битовая глубина : 8 бит
Тип развёртки : Прогрессивная
Бит/(Пиксели*Кадры) : 0.155
Размер потока : 4,97 Гбайт (87%)
Библиотека кодирования : x264 core 157
Настройки программы : cabac=1 / ref=5 / deblock=1:0:0 / analyse=0x3:0x133 / me=umh / subme=10 / psy=1 / psy_rd=1.00:0.00 / mixed_ref=1 / me_range=24 / chroma_me=1 / trellis=2 / 8x8dct=1 / cqm=0 / deadzone=21,11 / fast_pskip=1 / chroma_qp_offset=-2 / threads=25 / lookahead_threads=4 / sliced_threads=0 / nr=0 / decimate=1 / interlaced=0 / bluray_compat=0 / stitchable=1 / constrained_intra=0 / bframes=8 / b_pyramid=2 / b_adapt=2 / b_bias=0 / direct=3 / weightb=1 / open_gop=0 / weightp=2 / keyint=250 / keyint_min=24 / scenecut=40 / intra_refresh=0 / rc_lookahead=60 / rc=2pass / mbtree=1 / bitrate=6000 / ratetol=1.0 / qcomp=0.60 / qpmin=0 / qpmax=69 / qpstep=4 / cplxblur=20.0 / qblur=0.5 / vbv_maxrate=6600 / vbv_bufsize=12000 / nal_hrd=none / filler=0 / ip_ratio=1.40 / aq=1:1.00
Язык : Russian
Default : Да
Forced : Нет
Аудио #1
Идентификатор : 2
Формат : AC-3
Формат/Информация : Audio Coding 3
Коммерческое название : Dolby Digital
Идентификатор кодека : A_AC3
Продолжительность : 1 ч. 54 м.
Вид битрейта : Постоянный
Битрейт : 448 Кбит/сек
Каналы : 6 каналов
Channel layout : L R C LFE Ls Rs
Частота : 48,0 КГц
Частота кадров : 31,250 кадров/сек (1536 SPF)
Метод сжатия : С потерями
Размер потока : 366 Мбайт (6%)
Язык : Russian
Service kind : Complete Main
Default : Да
Forced : Нет
Аудио #2
Идентификатор : 3
Формат : E-AC-3
Формат/Информация : Enhanced AC-3
Коммерческое название : Dolby Digital Plus
Идентификатор кодека : A_EAC3
Продолжительность : 1 ч. 54 м.
Вид битрейта : Постоянный
Битрейт : 448 Кбит/сек
Каналы : 6 каналов
Channel layout : L R C LFE Ls Rs
Частота : 48,0 КГц
Частота кадров : 31,250 кадров/сек (1536 SPF)
Метод сжатия : С потерями
Размер потока : 366 Мбайт (6%)
Язык : Russian
Service kind : Complete Main
Default : Нет
Forced : Нет
Текст
Идентификатор : 4
Формат : UTF-8
Идентификатор кодека : S_TEXT/UTF8
Идентификатор кодека/Информация : UTF-8 Plain Text
Продолжительность : 1 ч. 52 м.
Битрейт : 104 бит/сек
Частота кадров : 0,292 кадр/сек
Count of elements : 1967
Размер потока : 86,0 Кбайт (0%)
Язык : Russian
Default : Нет
Forced : Нет
Профиль  ЛС 
Показать сообщения:     

Вы не можете начинать темы
Вы не можете отвечать на сообщения
Вы не можете редактировать свои сообщения
Вы не можете удалять свои сообщения
Вы не можете голосовать в опросах
Вы не можете прикреплять файлы к сообщениям
Вы не можете скачивать файлы

Текущее время: 20-Июл 15:51
Часовой пояс: UTC + 5