Карающая длань / Red Right Hand (Эшом Нелмс, Иэн Нелмс) [2024, США, боевик, триллер, WEB-DLRip-AVC] Dub (Мосфильм-Мастер) + Sub Rus

Автор Сообщение
sergoufaVDV ®

Стаж: 8 лет 3 месяца
Сообщений: 1187
Откуда: Нагаево

Создавать темы sergoufaVDV ® написал(а)
25-Фев-2024 20:28
Карающая длань / Red Right Hand
Страна: США
Жанр: боевик, триллер
Год выпуска: 2024
Продолжительность: 01:47:07
Перевод: Профессиональный (полное дублирование) Мосфильм-Мастер
Cубтитры: русские
Формат субтитров: Не отключаемые (вшитые)
Режиссер: Эшом Нелмс, Иэн Нелмс
В ролях: Орландо Блум, Энди Макдауэлл, Гаррет Диллахант, Брайан Джерати, Джеймс Лэфферти, Скотт Хейз, Джереми Рэчфорд, Александра Парк, Николас Логан, Мо

Описание: Кэш живет скромной и мирной жизнью, помогает мужу покойной сестры воспитывать племянницу Саванну и управляться с фермой в небольшом городишке в Аппалачах. Но когда Кошка, глава местной банды и садистка, начинает угрожать его семье, Кэш понимает, что готов на все ради их защиты. И чем дольше длится противостояние, затягивая Кэша в водоворот насилия, тем сильнее стирается граница между добром и злом.

Качество: WEB-DLRip-AVC
Формат видео: MKV
Видео: 1072x448 (2.40:1), 25.000 fps, AVC, ~1567 Kbps, 0.131 bits/pixel
Аудио: Russian, 48.0 KHz, AC3, 6 ch, 384 Kbps

MediaInfo

Формат                                   : Matroska
Версия формата : Version 4
Размер файла : 1,46 Гбайт
Продолжительность : 1 ч. 47 м.
Режим общего битрейта : Переменный
Общий поток : 1 952 Кбит/сек
Частота кадров : 25,000 кадров/сек
Название фильма : Red Right Hand | Rip by порошков
Дата кодирования : 2024-02-25 04:43:25 UTC
Программа кодирования : mkvmerge v82.0 ('I'm The President') 64-bit
Библиотека кодирования : libebml v1.4.5 + libmatroska v1.7.1
Видео
Идентификатор : 1
Формат : AVC
Формат/Информация : Advanced Video Codec
Профиль формата : High@L4.1
Настройки формата : CABAC / 16 Ref Frames
Параметр CABAC формата : Да
Параметр RefFrames формата : 16 кадров
Идентификатор кодека : V_MPEG4/ISO/AVC
Продолжительность : 1 ч. 47 м.
Вид битрейта : Переменный
Битрейт : 1 567 Кбит/сек
Максимальный битрейт : 62,5 Мбит/сек
Ширина : 1 072 пикселя
Высота : 448 пикселей
Соотношение сторон : 2,39:1
Режим частоты кадров : Постоянный
Частота кадров : 25,000 кадров/сек
Цветовое пространство : YUV
Субдискретизация насыщенности : 4:2:0
Битовая глубина : 8 бит
Тип развёртки : Прогрессивная
Бит/(Пиксели*Кадры) : 0.131
Размер потока : 1,17 Гбайт (80%)
Библиотека кодирования : x264 core 164 r3164 c196240
Настройки программы : cabac=1 / ref=16 / deblock=1:-1:-1 / analyse=0x3:0x133 / me=umh / subme=10 / psy=1 / psy_rd=1.00:0.15 / mixed_ref=1 / me_range=24 / chroma_me=1 / trellis=2 / 8x8dct=1 / cqm=0 / deadzone=21,11 / fast_pskip=1 / chroma_qp_offset=-3 / threads=16 / lookahead_threads=3 / sliced_threads=0 / nr=0 / decimate=1 / interlaced=0 / bluray_compat=0 / constrained_intra=0 / bframes=16 / b_pyramid=2 / b_adapt=2 / b_bias=0 / direct=3 / weightb=1 / open_gop=0 / weightp=2 / keyint=250 / keyint_min=25 / scenecut=40 / intra_refresh=0 / rc_lookahead=60 / rc=2pass / mbtree=1 / bitrate=1567 / ratetol=1.0 / qcomp=0.60 / qpmin=0 / qpmax=69 / qpstep=4 / cplxblur=20.0 / qblur=0.5 / vbv_maxrate=62500 / vbv_bufsize=50000 / nal_hrd=vbr / filler=0 / ip_ratio=1.40 / aq=1:1.00
Default : Да
Forced : Нет
Аудио
Идентификатор : 2
Формат : AC-3
Формат/Информация : Audio Coding 3
Коммерческое название : Dolby Digital
Идентификатор кодека : A_AC3
Продолжительность : 1 ч. 47 м.
Вид битрейта : Постоянный
Битрейт : 384 Кбит/сек
Каналы : 6 каналов
Channel layout : L R C LFE Ls Rs
Частота : 48,0 КГц
Частота кадров : 31,250 кадров/сек (1536 SPF)
Метод сжатия : С потерями
Размер потока : 294 Мбайт (20%)
Заголовок : forced
Язык : Russian
Service kind : Complete Main
Default : Да
Forced : Нет
Текст
Идентификатор : 3
Формат : UTF-8
Идентификатор кодека : S_TEXT/UTF8
Идентификатор кодека/Информация : UTF-8 Plain Text
Продолжительность : 1 ч. 42 м.
Битрейт : 3 бит/сек
Частота кадров : 0,007 кадр/сек
Count of elements : 42
Размер потока : 2,51 Кбайт (0%)
Язык : Russian
Default : Да
Forced : Нет
Скриншоты:



Профиль  ЛС 
ФАТ

Стаж: 15 лет
Сообщений: 111

Создавать темы ФАТ написал(а)
26-Фев-2024 08:19 (спустя 11 часов)
ab
Профиль  ЛС 
varfolomei

Стаж: 12 лет
Сообщений: 24
Откуда: ??

Создавать темы varfolomei написал(а)
02-Апр-2024 20:20 (спустя 1 месяц 5 дней)
Почему ничего не скачивается?
Профиль  ЛС 
Показать сообщения:     

Вы не можете начинать темы
Вы не можете отвечать на сообщения
Вы не можете редактировать свои сообщения
Вы не можете удалять свои сообщения
Вы не можете голосовать в опросах
Вы не можете прикреплять файлы к сообщениям
Вы не можете скачивать файлы

Текущее время: 18-Апр 00:53
Часовой пояс: UTC + 5