Тёща (Аскар Узабаев) [2023 г., Комедия, WEB-DL 1080p] Лицензия

Автор Сообщение
rastor ®

Стаж: 15 лет
Сообщений: 5550

Создавать темы rastor ® написал(а)
01-Фев-2024 08:22
Тёща Год выпуска: 2023
Страна: Россия
Жанр: Комедия
Продолжительность:
Перевод: Не требуется
Cубтитры: Русские-Режиссер: Аскар Узабаев-В ролях: Лариса Гузеева, Гарик Харламов, Настасья Самбурская, Александр Лыков, Марк Богатырев, Никита Тарасов, Анна Уколова, Толепберген Байсакалов, Жаныл Асанбекова, Ёла Санько-Описание: Ольга Николаевна — волевая женщина и начальница ЖКХ, которая вполне довольна своей жизнью. Она хозяйка дома и на работе, полностью контролирует своего мужа Романа Павловича и оберегает дочь Варю. Единственный, кто не вписывается в её счастливую картину мира, — это зять Виктор, от которого на днях должна родить горячо любимая дочка. И вот однажды шквал взаимных претензий становится так велик, что прямо на семейном празднике ситуация выходит из-под контроля.--Качество: WEB-DL 1080p
Формат: MKV
Видео кодек: H.264
Аудио кодек: AC3
Видео: 1920x1080 24fps 6144kbps
Аудио: 48kHz 6ch 640kbps

MediaInfo

Format : Matroska
Format version : Version 4
File size : 4.67 GiB
Duration : 1 h 38 min
Overall bit rate : 6 767 kb/s
Movie name : Tescha.2023.WEB-DL.1080p.ELEKTRI4KA.UNIONGANG.
Encoded date : UTC 2024-01-31 21:56:53
Writing application : mkvmerge v8.3.0 ('Over the Horizon') 64bit
Writing library : libebml v1.3.1 + libmatroska v1.4.2
Video
ID : 1
Format : AVC
Format/Info : Advanced Video Codec
Format profile : Baseline@L4
Format settings : 2 Ref Frames
Format settings, CABAC : No
Format settings, Reference frames : 2 frames
Codec ID : V_MPEG4/ISO/AVC
Duration : 1 h 38 min
Bit rate mode : Constant
Bit rate : 6 144 kb/s
Width : 1 920 pixels
Height : 1 080 pixels
Display aspect ratio : 16:9
Frame rate mode : Constant
Frame rate : 24.000 FPS
Color space : YUV
Chroma subsampling : 4:2:0
Bit depth : 8 bits
Scan type : Progressive
Bits/(Pixel*Frame) : 0.123
Stream size : 4.23 GiB (91%)
Default : Yes
Forced : No
Audio
ID : 2
Format : AC-3
Format/Info : Audio Coding 3
Commercial name : Dolby Digital
Codec ID : A_AC3
Duration : 1 h 38 min
Bit rate mode : Constant
Bit rate : 640 kb/s
Channel(s) : 6 channels
Channel layout : L R C LFE Ls Rs
Sampling rate : 48.0 kHz
Frame rate : 31.250 FPS (1536 SPF)
Compression mode : Lossy
Stream size : 453 MiB (9%)
Title : Original (KION)
Language : Russian
Service kind : Complete Main
Default : Yes
Forced : No
Text
ID : 3
Format : UTF-8
Codec ID : S_TEXT/UTF8
Codec ID/Info : UTF-8 Plain Text
Duration : 1 h 36 min
Bit rate : 81 b/s
Count of elements : 1631
Stream size : 57.7 KiB (0%)
Title : Full Al
Language : Russian
Default : No
Forced : No
Профиль  ЛС 
Показать сообщения:     

Вы не можете начинать темы
Вы не можете отвечать на сообщения
Вы не можете редактировать свои сообщения
Вы не можете удалять свои сообщения
Вы не можете голосовать в опросах
Вы не можете прикреплять файлы к сообщениям
Вы не можете скачивать файлы

Текущее время: 01-Мар 02:58
Часовой пояс: UTC + 5