Пчеловод / The Beekeeper (Дэвид Эйр) [2024 г., Боевик, триллер, WEB-DLRip 1080p] MVO

Автор Сообщение
rastor ®

Стаж: 15 лет
Сообщений: 5550

Создавать темы rastor ® написал(а)
31-Янв-2024 23:23
ПчеловодThe Beekeeper Год выпуска: 2024
Страна: Великобритания, США
Жанр: Боевик, триллер
Продолжительность: 01:45:14
Перевод:
*Профессиональный (многоголосый) Jaskier
*Профессиональный (двухголосый) ViruseProject
Cубтитры: Русские, английские-Режиссер: Дэвид Эйр-В ролях: Джейсон Стэйтем, Эмми Рэйвер-Лэмпман, Бобби Надери, Джош Хатчерсон, Джереми Айронс, Дэвид Уиттс, Михаэль Эпп, Тейлор Джеймс, Филисия Рашад, Джемма Редгрейв-Описание: Адам Клэй живет в тихом пригороде, занимается разведением пчел и не распространяется о своей прошлой жизни. Пожилая соседка рада, что в их край приехал заинтересованный человек, улучшающий природу и экологию. Пасечник часто общается с милой миссис Паркер, которая однажды становится жертвой финансовых мошенников. Аферисты похищают деньги со всех счетов женщины, и после тяжелого удара пенсионерка сводит счеты с жизнью. Адам решает за нее отомстить.--Качество: WEB-DLRip 1080p
Формат: MKV
Видео кодек: H.264
Аудио кодек: AC3
Видео: 1920x800 23.98fps 8764kbps
Аудио:
Аудио Jaskier: 48kHz 6ch 384Kbps
Аудио ViruseProject: 48kHz 6ch 640Kbps
Аудио Eng: 48kHz 6ch 640Kbps

MediaInfo

Формат : Matroska
Версия формата : Version 4 / Version 2
Размер файла : 7,60 Гбайт
Продолжительность : 1 ч. 45 м.
Общий поток : 10,3 Мбит/сек
Название фильма : The.Beekeeper.2024.1080p.AMZN_от New-Team
Дата кодирования : UTC 2024-02-01 14:40:59
Программа кодирования : mkvmerge v79.0 ('Funeral Pyres') 64-bit
Библиотека кодирования : libebml v1.4.4 + libmatroska v1.7.1
DURATION : 01:45:14.144000000
NUMBER_OF_FRAMES : 197317
NUMBER_OF_BYTES : 303078912
_STATISTICS_WRITING_APP : mkvmerge v79.0 ('Funeral Pyres') 64-bit
_STATISTICS_WRITING_DATE_UTC : 2024-02-01 14:40:59
_STATISTICS_TAGS : BPS DURATION NUMBER_OF_FRAMES NUMBER_OF_BYTES
Видео
Идентификатор : 1
Формат : AVC
Формат/Информация : Advanced Video Codec
Профиль формата : High@L4.0
Параметр CABAC формата : Да
Параметр ReFrames формата : 4 кадра
Идентификатор кодека : V_MPEG4/ISO/AVC
Продолжительность : 1 ч. 45 м.
Вид битрейта : Постоянный
Битрейт : 8469 Кбит/сек
Номинальный битрейт : 10000 Кбит/сек
Ширина : 1920 пикселей
Высота : 800 пикселей
Соотношение сторон : 2,40:1
Режим частоты кадров : Постоянный
Частота кадров : 23,976 кадра/сек
Цветовое пространство : YUV
Субдискретизация насыщенности : 4:2:0
Битовая глубина : 8 бит
Тип развёртки : Прогрессивная
Бит/(Пиксели*Кадры) : 0.230
Размер потока : 6,23 Гбайт (82%)
Язык : English
Default : Да
Forced : Нет
Основные цвета : BT.709
Характеристики трансфера : BT.709
Коэффициенты матрицы : BT.709
Аудио #1
Идентификатор : 2
Формат : AC-3
Формат/Информация : Audio Coding 3
Расширение режима : CM (complete main)
Параметр Endianness формата : Big
Идентификатор кодека : A_AC3
Продолжительность : 1 ч. 45 м.
Вид битрейта : Постоянный
Битрейт : 384 Кбит/сек
Каналы : 6 каналов
Расположение каналов : Front: L C R, Side: L R, LFE
Частота : 48,0 КГц
Битовая глубина : 16 бит
Метод сжатия : С потерями
Размер потока : 289 Мбайт (4%)
Заголовок : MVO - Jaskier
Язык : Russian
Default : Да
Forced : Нет
Аудио #2
Идентификатор : 3
Формат : AC-3
Формат/Информация : Audio Coding 3
Расширение режима : CM (complete main)
Параметр Endianness формата : Big
Идентификатор кодека : A_AC3
Продолжительность : 1 ч. 45 м.
Вид битрейта : Постоянный
Битрейт : 640 Кбит/сек
Каналы : 6 каналов
Расположение каналов : Front: L C R, Side: L R, LFE
Частота : 48,0 КГц
Битовая глубина : 16 бит
Метод сжатия : С потерями
Размер потока : 482 Мбайт (6%)
Заголовок : DVO - ViruseProject
Язык : Russian
Default : Нет
Forced : Нет
Аудио #3
Идентификатор : 4
Формат : E-AC-3
Формат/Информация : Audio Coding 3
Параметр Endianness формата : Big
Идентификатор кодека : A_EAC3
Продолжительность : 1 ч. 45 м.
Вид битрейта : Постоянный
Битрейт : 640 Кбит/сек
Каналы : 6 каналов
Расположение каналов : Front: L C R, Side: L R, LFE
Частота : 48,0 КГц
Метод сжатия : С потерями
Размер потока : 482 Мбайт (6%)
Заголовок : Original
Язык : English
Default : Нет
Forced : Нет
Текст #1
Идентификатор : 5
Формат : UTF-8
Идентификатор кодека : S_TEXT/UTF8
Идентификатор кодека/Информация : UTF-8 Plain Text
Заголовок : [full [Stirlooo]]
Язык : Russian
Default : Нет
Forced : Нет
Текст #2
Идентификатор : 6
Формат : UTF-8
Идентификатор кодека : S_TEXT/UTF8
Идентификатор кодека/Информация : UTF-8 Plain Text
Заголовок : [full]
Язык : English
Default : Нет
Forced : Нет
Текст #3
Идентификатор : 7
Формат : UTF-8
Идентификатор кодека : S_TEXT/UTF8
Идентификатор кодека/Информация : UTF-8 Plain Text
Заголовок : [SDH]
Язык : English
Default : Нет
Forced : Нет


Последний раз редактировалось: rastor (2024-02-03 21:30), всего редактировалось 1 раз
Профиль  ЛС 
DarkManX

Стаж: 15 лет
Сообщений: 22

Создавать темы DarkManX написал(а)
03-Фев-2024 11:32 (спустя 2 дня 12 часов)
О, спасибо, будем посмотреть =))
Профиль  ЛС 
PoloTenchik02

Стаж: 15 лет
Сообщений: 353

Создавать темы PoloTenchik02 написал(а)
03-Фев-2024 15:19 (спустя 3 часа)
rastor, огромнейшая благодарность
Профиль  ЛС 
Panzerfaust

Стаж: 15 лет
Сообщений: 521
Откуда: ANTARCTICA

Создавать темы Panzerfaust написал(а)
07-Фев-2024 22:52 (спустя 4 дня)
Мне понравился фильм, все по чесноку.
Профиль  ЛС 
Показать сообщения:     

Вы не можете начинать темы
Вы не можете отвечать на сообщения
Вы не можете редактировать свои сообщения
Вы не можете удалять свои сообщения
Вы не можете голосовать в опросах
Вы не можете прикреплять файлы к сообщениям
Вы не можете скачивать файлы

Текущее время: 01-Мар 02:59
Часовой пояс: UTC + 5