Оппенгеймер / Oppenheimer (Кристофер Нолан) [2023 г., Биография, драма, история, реальные события, экранизация, BDRip 1080p] Лицензия

Автор Сообщение
rastor ®

Стаж: 15 лет
Сообщений: 5529

Создавать темы rastor ® написал(а)
13-Ноя-2023 23:43
ОппенгеймерOppenheimer Год выпуска: 2023
Страна: США, Великобритания
Жанр: Биография, драма, история, реальные события, экранизация
Продолжительность: 03:00:22
Перевод: Профессиональный (полное дублирование)
Cубтитры: Русские, английские-Режиссер: Кристофер Нолан-В ролях: Киллиан Мёрфи, Эмили Блант, Мэтт Дэймон, Роберт Дауни мл., Флоренс Пью, Джош Хартнетт, Кейси Аффлек, Рами Малек, Кеннет Брана, Бенни Сэфди, Дилан Арнольд, Густаф Скарсгард, Дэвид Крамхолц, Мэттью Модайн, Давид Дастмалчян-Описание: История физика-теоретика Джулиуса Роберта Оппенгеймера, считающегося «отцом атомной бомбы». В 1940-х годах в рамках «Манхэттенского проекта» он руководил разработкой первого ядерного оружия в Лос-Аламосской национальной лаборатории. «Оппенгеймер» (2023) — биографическая драма Кристофера Нолана с Киллианом Мерфи в главной роли, основанная на книге «Американский Прометей: Триумф и трагедия Дж. Роберта Оппенгеймера» Кая Берда и Мартина Дж. Шервина.--Качество: BDRip 1080p
Формат: MKV
Видео кодек: H.264
Аудио кодек: DTS, AC3
Видео: 1920x1080 23.98fps 13004Kbps
Аудио:
Аудио Rus: AC3 48kHz 6ch 448Kbps
Аудио Eng: DTS 48kHz 6ch 1509Kbps

MediaInfo

Формат : Matroska
Версия формата : Version 4
Размер файла : 18,4 Гбайт
Продолжительность : 3 ч. 0 м.
Общий поток : 14,6 Мбит/сек
Название фильма : Oppenheimer (2023)
Дата кодирования : UTC 2023-11-15 20:56:42
Программа кодирования : mkvmerge v74.0.0 ('You Oughta Know') 64-bit
Библиотека кодирования : libebml v1.4.4 + libmatroska v1.7.1
Видео
Идентификатор : 1
Формат : AVC
Формат/Информация : Advanced Video Codec
Профиль формата : Main@L4.1
Настройки формата : CABAC / 4 Ref Frames
Параметр CABAC формата : Да
Параметр RefFrames формата : 4 кадра
Идентификатор кодека : V_MPEG4/ISO/AVC
Продолжительность : 3 ч. 0 м.
Битрейт : 12,7 Мбит/сек
Ширина : 1 920 пикселей
Высота : 1 080 пикселей
Соотношение сторон : 16:9
Режим частоты кадров : Постоянный
Частота кадров : 23,976 (24000/1001) кадра/сек
Цветовое пространство : YUV
Субдискретизация насыщенности : 4:2:0
Битовая глубина : 8 бит
Тип развёртки : Прогрессивная
Бит/(Пиксели*Кадры) : 0.255
Размер потока : 16,0 Гбайт (87%)
Заголовок : potroks
Библиотека кодирования : x264 core 164 r3095 baee400
Настройки программы : cabac=1 / ref=4 / deblock=1:-3:-3 / analyse=0x1:0x111 / me=umh / subme=11 / psy=1 / psy_rd=1.05:0.00 / mixed_ref=1 / me_range=32 / chroma_me=0 / trellis=2 / 8x8dct=0 / cqm=0 / deadzone=21,11 / fast_pskip=0 / chroma_qp_offset=-2 / threads=19 / lookahead_threads=4 / sliced_threads=0 / nr=0 / decimate=1 / interlaced=0 / bluray_compat=0 / constrained_intra=0 / bframes=10 / b_pyramid=2 / b_adapt=2 / b_bias=0 / direct=3 / weightb=1 / open_gop=0 / weightp=2 / keyint=250 / keyint_min=23 / scenecut=40 / intra_refresh=0 / rc_lookahead=200 / rc=2pass / mbtree=0 / bitrate=12679 / ratetol=1.0 / qcomp=0.72 / qpmin=0 / qpmax=69 / qpstep=5 / cplxblur=20.0 / qblur=0.5 / vbv_maxrate=50000 / vbv_bufsize=62500 / nal_hrd=none / filler=0 / ip_ratio=1.40 / pb_ratio=1.30 / aq=1:0.80
Язык : English
Default : Да
Forced : Нет
Аудио #1
Идентификатор : 2
Формат : AC-3
Формат/Информация : Audio Coding 3
Коммерческое название : Dolby Digital
Идентификатор кодека : A_AC3
Продолжительность : 3 ч. 0 м.
Вид битрейта : Постоянный
Битрейт : 448 Кбит/сек
Каналы : 6 каналов
Channel layout : L R C LFE Ls Rs
Частота : 48,0 КГц
Частота кадров : 31,250 кадров/сек (1536 SPF)
Метод сжатия : С потерями
Размер потока : 578 Мбайт (3%)
Заголовок : Dub | DD 5.1 @ 448 kbps - TVShows
Язык : Russian
Service kind : Complete Main
Default : Да
Forced : Нет
Аудио #2
Идентификатор : 3
Формат : DTS
Формат/Информация : Digital Theater Systems
Идентификатор кодека : A_DTS
Продолжительность : 3 ч. 0 м.
Вид битрейта : Постоянный
Битрейт : 1 509 Кбит/сек
Каналы : 6 каналов
Channel layout : C L R Ls Rs LFE
Частота : 48,0 КГц
Частота кадров : 93,750 кадра/сек (512 SPF)
Битовая глубина : 24 бит
Метод сжатия : С потерями
Размер потока : 1,90 Гбайт (10%)
Заголовок : Original | DTS 5.1 @ 1509 kbps
Язык : English
Default : Нет
Forced : Нет
Текст #1
Идентификатор : 4
Формат : UTF-8
Идентификатор кодека : S_TEXT/UTF8
Идентификатор кодека/Информация : UTF-8 Plain Text
Продолжительность : 1 ч. 33 м.
Битрейт : 0 бит/сек
Count of elements : 6
Размер потока : 590 байт (0%)
Заголовок : Forced
Язык : Russian
Default : Нет
Forced : Да
Текст #2
Идентификатор : 5
Формат : UTF-8
Идентификатор кодека : S_TEXT/UTF8
Идентификатор кодека/Информация : UTF-8 Plain Text
Продолжительность : 2 ч. 52 м.
Битрейт : 150 бит/сек
Count of elements : 2800
Размер потока : 190 Кбайт (0%)
Заголовок : Full [LineFilm]
Язык : Russian
Default : Нет
Forced : Нет
Текст #3
Идентификатор : 6
Формат : UTF-8
Идентификатор кодека : S_TEXT/UTF8
Идентификатор кодека/Информация : UTF-8 Plain Text
Продолжительность : 2 ч. 52 м.
Битрейт : 84 бит/сек
Count of elements : 2908
Размер потока : 107 Кбайт (0%)
Заголовок : Full
Язык : English
Default : Нет
Forced : Нет
Текст #4
Идентификатор : 7
Формат : UTF-8
Идентификатор кодека : S_TEXT/UTF8
Идентификатор кодека/Информация : UTF-8 Plain Text
Продолжительность : 2 ч. 53 м.
Битрейт : 89 бит/сек
Count of elements : 3107
Размер потока : 114 Кбайт (0%)
Заголовок : SDH
Язык : English
Default : Нет
Forced : Нет
Меню
00:00:00.000 : en:Chapter 01
00:07:23.526 : en:Chapter 02
00:16:36.078 : en:Chapter 03
00:27:23.975 : en:Chapter 04
00:36:01.534 : en:Chapter 05
00:42:51.652 : en:Chapter 06
00:52:31.606 : en:Chapter 07
00:59:56.593 : en:Chapter 08
01:10:53.540 : en:Chapter 09
01:17:58.215 : en:Chapter 10
01:24:14.340 : en:Chapter 11
01:36:07.011 : en:Chapter 12
01:43:06.930 : en:Chapter 13
01:51:19.589 : en:Chapter 14
02:00:18.377 : en:Chapter 15
02:09:02.192 : en:Chapter 16
02:17:08.637 : en:Chapter 17
02:32:04.949 : en:Chapter 18
02:47:40.633 : en:Chapter 19
02:54:12.442 : en:Chapter 20


Последний раз редактировалось: rastor (2023-11-16 14:47), всего редактировалось 1 раз
Профиль  ЛС 
Panzerfaust

Стаж: 15 лет
Сообщений: 515
Откуда: ANTARCTICA

Создавать темы Panzerfaust написал(а)
15-Ноя-2023 09:49 (спустя 1 день 10 часов)
Офигенный фильм для тех кто в теме, кто не знает кто это такой, смысла нет смотреть. Половина фильма просто не поймете.
Жалко, что не показали, его другую сущность. Такую как его психические припадки и как он на людей кидался и пытался задушить оппонентов. Он ж малеха, был шизофреником, не принимал чужую точку зрения, постоянно перебивал всех при разговорах, но черт возьми был Гением.
Маккартизм тут показан практически достоверно, с их манией преследования и поиском шпионов.
Я даже поставил бы 10 из 10.
Профиль  ЛС 
PoloTenchik02

Стаж: 15 лет
Сообщений: 347

Создавать темы PoloTenchik02 написал(а)
15-Ноя-2023 22:56 (спустя 13 часов)
Panzerfaust, Полностью солидарен с мнением.
Профиль  ЛС 
Хороший стрелок

Стаж: 3 года 11 месяцев
Сообщений: 1

Создавать темы Хороший стрелок написал(а)
02-Дек-2023 12:58 (спустя 16 дней)
Кто подскажет когда выйдет в 4К с Dolby Vision?
Профиль  ЛС 
rastor ®

Стаж: 15 лет
Сообщений: 5529

Создавать темы rastor ® написал(а)
02-Дек-2023 22:41 (спустя 9 часов)
5370613Кто подскажет когда выйдет в 4К с Dolby Vision?
Уже давно вышел.
Профиль  ЛС 
Показать сообщения:     

Вы не можете начинать темы
Вы не можете отвечать на сообщения
Вы не можете редактировать свои сообщения
Вы не можете удалять свои сообщения
Вы не можете голосовать в опросах
Вы не можете прикреплять файлы к сообщениям
Вы не можете скачивать файлы

Текущее время: 08-Дек 01:17
Часовой пояс: UTC + 5