Вызов (Клим Шипенко) [2023 г., Драма, WEB-DL 1080p] Лицензия

Автор Сообщение
rastor ®

Стаж: 15 лет
Сообщений: 5558

Создавать темы rastor ® написал(а)
01-Сен-2023 08:00
Вызов Год выпуска: 2023
Страна: Россия
Жанр: Драма
Продолжительность: 02:43:35
Перевод: Не требуется-Режиссер: Клим Шипенко-В ролях: Юлия Пересильд, Милош Бикович, Владимир Машков, Олег Новицкий, Антон Шкаплеров, Пётр Дубров, Елена Валюшкина, Варвара Володина, Андрей Щепочкин, Александр Балуев-Описание: Евгения Беляева — первоклассный торакальный хирург. Работа занимает главное место в ее жизни, на отношения и воспитание дочери-подростка у героини совсем не остается времени. Через месяц Жене предстоит отправиться в космос, где в условиях невесомости она должна будет сделать сложную операцию космонавту, чтобы спасти ему жизнь. Удастся ли ей справиться с испытаниями? Сможет ли она преодолеть неуверенность и страхи?
«Вызов» — драма Клима Шипенко с Юлией Пересильд, съемки которой прошли на борту Международной космической станции в 400 км от Земли.--Качество: WEB-DL 1080p
Формат: MKV
Видео кодек: H.264
Аудио кодек: AC3
Видео: 1920x1012 24fps 4982kbps
Аудио: 48kHz 6ch 384kbps

MediaInfo

Format : Matroska
Format version : Version 4
File size : 6.57 GiB
Duration : 2 h 43 min
Overall bit rate : 5 752 kb/s
Frame rate : 24.000 FPS
Movie name : Vizov 2023 from seleZen
Encoded date : 2023-08-31 22:43:27 UTC
Writing application : mkvmerge v63.0.0 ('Everything') 64-bit
Writing library : libebml v1.4.2 + libmatroska v1.6.4
Video
ID : 1
Format : AVC
Format/Info : Advanced Video Codec
Format profile : High@L4
Format settings : CABAC / 3 Ref Frames
Format settings, CABAC : Yes
Format settings, Reference : 3 frames
Codec ID : V_MPEG4/ISO/AVC
Duration : 2 h 43 min
Bit rate : 4 982 kb/s
Width : 1 920 pixels
Height : 1 012 pixels
Display aspect ratio : 1.897
Frame rate mode : Constant
Frame rate : 24.000 FPS
Color space : YUV
Chroma subsampling : 4:2:0
Bit depth : 8 bits
Scan type : Progressive
Bits/(Pixel*Frame) : 0.107
Stream size : 5.69 GiB (87%)
Language : Russian
Default : Yes
Forced : No
Audio #1
ID : 2
Format : AC-3
Format/Info : Audio Coding 3
Commercial name : Dolby Digital
Codec ID : A_AC3
Duration : 2 h 43 min
Bit rate mode : Constant
Bit rate : 384 kb/s
Channel(s) : 6 channels
Channel layout : L R C LFE Ls Rs
Sampling rate : 48.0 kHz
Frame rate : 31.250 FPS (1536 SPF)
Compression mode : Lossy
Stream size : 449 MiB (7%)
Language : Russian
Service kind : Complete Main
Default : Yes
Forced : Yes
Audio #2
ID : 3
Format : E-AC-3
Format/Info : Enhanced AC-3
Commercial name : Dolby Digital Plus
Codec ID : A_EAC3
Duration : 2 h 43 min
Bit rate mode : Constant
Bit rate : 384 kb/s
Channel(s) : 6 channels
Channel layout : L R C LFE Ls Rs
Sampling rate : 48.0 kHz
Frame rate : 31.250 FPS (1536 SPF)
Compression mode : Lossy
Stream size : 449 MiB (7%)
Language : Russian
Service kind : Complete Main
Default : No
Forced : No
Профиль  ЛС 
Panzerfaust

Стаж: 15 лет
Сообщений: 528
Откуда: ANTARCTICA

Создавать темы Panzerfaust написал(а)
08-Сен-2023 23:15 (спустя 7 дней)
Если честно говнище редкостное, одна голимая реклама тинькова, мегафона и других брэндов.
Съемки постоянно дерганные, уж слишком быстрая смена планов, как буд-то снимали в ускоренном режиме, из плюсов красивый старт ракеты и стыковка.
Немерено потраченных денег в задницу.
Профиль  ЛС 
Показать сообщения:     

Вы не можете начинать темы
Вы не можете отвечать на сообщения
Вы не можете редактировать свои сообщения
Вы не можете удалять свои сообщения
Вы не можете голосовать в опросах
Вы не можете прикреплять файлы к сообщениям
Вы не можете скачивать файлы

Текущее время: 15-Июн 02:43
Часовой пояс: UTC + 5