Нюрнберг (Николай Лебедев) [2023 г., История, драма, военный, триллер, WEB-DL 1080p] Лицензия

Автор Сообщение
rastor ®

Стаж: 15 лет
Сообщений: 5558

Создавать темы rastor ® написал(а)
20-Апр-2023 08:53
Нюрнберг Год выпуска: 2023
Страна: Россия
Жанр: История, драма, военный, триллер
Продолжительность: 02:04:49
Перевод: Не требуется-Режиссер: Николай Лебедев-В ролях: Сергей Кемпо, Любовь Аксёнова, Евгений Миронов, Сергей Безруков, Алексей Бардуков, Игорь Петренко, Вольфганг Черни, Шарлотта Харвуд, Лаура Бах, Клаус Шиндлер-Описание: 1945 год. В Нюрнберге начинает работу Международный военный трибунал. На суд, который впоследствии назовут Процессом Века, съезжается огромное количество людей со всего мира: город переполнен журналистами, адвокатами, переводчиками, свидетелями и множеством участников и сотрудников процесса.
Среди тех, кто приезжает в Нюрнберг работать на Процессе — Игорь Волгин. Он молод, но прошел войну, имеет награды, владеет несколькими иностранными языками. Волгину предстоит быть переводчиком в составе советской делегации под руководством полковника Мигачева. Однажды на улице Нюрнберга Волгин встречает юную русскую девушку Лену. Их зарождающееся чувство пройдет через множество испытаний, но любовь — это единственное, что во все времена спасало мир от расчеловечивания.--Качество: WEB-DL 1080p
Формат: MKV
Видео кодек: H.264
Аудио кодек: AC3
Видео: 1920x1080 25fps 6144kbps
Аудио: 48kHz 6ch 640kbps

MediaInfo

Формат : Matroska
Версия формата : Version 4
Размер файла : 5,89 Гбайт
Продолжительность : 2 ч. 4 м.
Режим общего битрейта : Постоянный
Общий поток : 6 756 Кбит/сек
Название фильма : Nyurnberg.2023.WEB-DL.1080p
Дата кодирования : UTC 2023-04-19 21:11:32
Программа кодирования : mkvmerge v75.0.0 ('Goliath') 64-bit
Библиотека кодирования : libebml v1.4.4 + libmatroska v1.7.1
Attachments : poster.jpg
Видео
Идентификатор : 1
Формат : AVC
Формат/Информация : Advanced Video Codec
Профиль формата : Baseline@L4
Настройки формата : 2 Ref Frames
Параметр CABAC формата : Нет
Параметр RefFrames формата : 2 кадра
Параметр GOP формата : M=1, N=25
Идентификатор кодека : V_MPEG4/ISO/AVC
Продолжительность : 2 ч. 4 м.
Вид битрейта : Постоянный
Битрейт : 6 144 Кбит/сек
Ширина : 1 920 пикселей
Высота : 1 080 пикселей
Соотношение сторон : 16:9
Режим частоты кадров : Постоянный
Частота кадров : 25,000 кадров/сек
Цветовое пространство : YUV
Субдискретизация насыщенности : 4:2:0
Битовая глубина : 8 бит
Тип развёртки : Прогрессивная
Бит/(Пиксели*Кадры) : 0.119
Размер потока : 5,33 Гбайт (90%)
Default : Да
Forced : Нет
Аудио
Идентификатор : 2
Формат : AC-3
Формат/Информация : Audio Coding 3
Коммерческое название : Dolby Digital
Идентификатор кодека : A_AC3
Продолжительность : 2 ч. 4 м.
Вид битрейта : Постоянный
Битрейт : 640 Кбит/сек
Каналы : 6 каналов
Channel layout : L R C LFE Ls Rs
Частота : 48,0 КГц
Частота кадров : 31,250 кадров/сек (1536 SPF)
Метод сжатия : С потерями
Размер потока : 571 Мбайт (9%)
Заголовок : [Original | 5.1 AC-3 Audio]
Язык : Russian
Service kind : Complete Main
Default : Да
Forced : Нет
Профиль  ЛС 
Panzerfaust

Стаж: 15 лет
Сообщений: 528
Откуда: ANTARCTICA

Создавать темы Panzerfaust написал(а)
18-Июн-2023 19:54 (спустя 1 месяц 28 дней)
Поставлю 5 конечно, из-за патриотизма, но фильм такая шняга, снят походу на быструю руку. Взрывы не естественные, дешевые, форма не классического аллого цвета, много интима, все слишком чисто, декорации совсем задница и это слабо сказано, монтаж из рук вон плохо.
НУ если хочешь фильм вписать в бюжет слабого кино, то тогда символ фильма точно не для этого повода.
Профиль  ЛС 
Показать сообщения:     

Вы не можете начинать темы
Вы не можете отвечать на сообщения
Вы не можете редактировать свои сообщения
Вы не можете удалять свои сообщения
Вы не можете голосовать в опросах
Вы не можете прикреплять файлы к сообщениям
Вы не можете скачивать файлы

Текущее время: 15-Июн 03:46
Часовой пояс: UTC + 5