Праведник (Сергей Урсуляк) [2023, драма, военный, история, WEB-DLRip-AVC]

Автор Сообщение
sergoufaVDV ®

Стаж: 8 лет 3 месяца
Сообщений: 1187
Откуда: Нагаево

Создавать темы sergoufaVDV ® написал(а)
31-Мар-2023 19:38
Праведник
Жанр: драма, военный, история
Год выпуска: 2023
Продолжительность: 02:42:31
Оригинальная аудиодорожка: русский
Режиссер: Сергей Урсуляк
В ролях: Александр Яценко, Сергей Маковецкий, Фёдор Добронравов, Евгений Ткачук, Юлия Витрук, Любовь Константинова, Марк Эйдельштейн, Мария Золотухина, Константин Хабенский, Довале Гликман

Описание: 1942 год. Офицер Красной армии Николай Киселев получает приказ вывести с оккупированных белорусских земель за линию фронта свыше двухсот евреев — стариков, женщин и детей, чудом избежавших расправы. Этим измученным голодом людям, потерявшим родных и едва не сошедшим с ума от пережитого ужаса, предстоит пройти пешком по лесным тропам сотни километров, чтобы обрести надежду на спасение и веру в будущее.
Сэмпл: http://multi-up.com/1303336
Качество: WEB-DLRip-AVC
Формат видео: MKV
Видео: 1072x448 (2.40:1), 24.000 fps, AVC, ~2179 Kbps, 0.189 bits/pixel
Аудио: Russian, 48.0 KHz, AC3, 6 ch, 384 Kbps

MediaInfo

Формат : Matroska
Версия формата : Version 4
Размер файла : 2,91 Гбайт
Продолжительность : 2 ч. 42 м.
Режим общего битрейта : Переменный
Общий поток : 2 564 Кбит/сек
Название фильма : Праведник | Rip by порошков
Дата кодирования : UTC 2023-03-30 13:28:59
Программа кодирования : mkvmerge v71.1.0 ('Fortitude') 64-bit
Библиотека кодирования : libebml v1.4.4 + libmatroska v1.7.1
Видео
Идентификатор : 1
Формат : AVC
Формат/Информация : Advanced Video Codec
Профиль формата : High@L4.1
Настройки формата : CABAC / 16 Ref Frames
Параметр CABAC формата : Да
Параметр RefFrames формата : 16 кадров
Идентификатор кодека : V_MPEG4/ISO/AVC
Продолжительность : 2 ч. 42 м.
Вид битрейта : Переменный
Битрейт : 2 179 Кбит/сек
Максимальный битрейт : 50,0 Мбит/сек
Ширина : 1 072 пикселя
Высота : 448 пикселей
Соотношение сторон : 2,40:1
Режим частоты кадров : Постоянный
Частота кадров : 24,000 кадра/сек
Цветовое пространство : YUV
Субдискретизация насыщенности : 4:2:0
Битовая глубина : 8 бит
Тип развёртки : Прогрессивная
Бит/(Пиксели*Кадры) : 0.189
Размер потока : 2,47 Гбайт (85%)
Библиотека кодирования : x264 core 164 r3106 eaa68fa
Настройки программы : cabac=1 / ref=16 / deblock=1:-1:-1 / analyse=0x3:0x133 / me=umh / subme=10 / psy=1 / psy_rd=1.00:0.15 / mixed_ref=1 / me_range=24 / chroma_me=1 / trellis=2 / 8x8dct=1 / cqm=0 / deadzone=21,11 / fast_pskip=1 / chroma_qp_offset=-3 / threads=16 / lookahead_threads=3 / sliced_threads=0 / nr=0 / decimate=1 / interlaced=0 / bluray_compat=0 / constrained_intra=0 / bframes=16 / b_pyramid=2 / b_adapt=2 / b_bias=0 / direct=3 / weightb=1 / open_gop=0 / weightp=2 / keyint=240 / keyint_min=24 / scenecut=40 / intra_refresh=0 / rc_lookahead=60 / rc=2pass / mbtree=1 / bitrate=2179 / ratetol=1.0 / qcomp=0.60 / qpmin=0 / qpmax=69 / qpstep=4 / cplxblur=20.0 / qblur=0.5 / vbv_maxrate=50000 / vbv_bufsize=62500 / nal_hrd=vbr / filler=0 / ip_ratio=1.40 / aq=1:1.00
Default : Да
Forced : Нет
Аудио
Идентификатор : 2
Формат : AC-3
Формат/Информация : Audio Coding 3
Коммерческое название : Dolby Digital
Идентификатор кодека : A_AC3
Продолжительность : 2 ч. 42 м.
Вид битрейта : Постоянный
Битрейт : 384 Кбит/сек
Каналы : 6 каналов
Channel layout : L R C LFE Ls Rs
Частота : 48,0 КГц
Частота кадров : 31,250 кадров/сек (1536 SPF)
Метод сжатия : С потерями
Размер потока : 446 Мбайт (15%)
Язык : Russian
Service kind : Complete Main
Default : Да
Forced : Нет
Скриншоты:


Профиль  ЛС 
olesja0007

Стаж: 9 лет 4 месяца
Сообщений: 7

Создавать темы olesja0007 написал(а)
04-Апр-2023 20:37 (спустя 4 дня)
Спасибо! фильм понравился, очень сильный!
Профиль  ЛС 
yanboolis

Стаж: 6 лет 6 месяцев
Сообщений: 3

Создавать темы yanboolis написал(а)
22-Апр-2023 12:26 (спустя 17 дней)
главный герой Киселев родом из нашей республики с Благовещенского района
Профиль  ЛС 
S.T.A.L.K.E.R.

Стаж: 4 года 9 месяцев
Сообщений: 37
Откуда: Уфа

Создавать темы S.T.A.L.K.E.R. написал(а)
17-Май-2023 15:20 (спустя 25 дней)
5369066главный герой Киселев родом из нашей республики с Благовещенского района
Буква Ю )))
Профиль  ЛС 
yanboolis

Стаж: 6 лет 6 месяцев
Сообщений: 3

Создавать темы yanboolis написал(а)
17-Май-2023 19:55 (спустя 4 часа)
5369159
5369066главный герой Киселев родом из нашей республики с Благовещенского района
Буква Ю )))
?
Профиль  ЛС 
Показать сообщения:     

Вы не можете начинать темы
Вы не можете отвечать на сообщения
Вы не можете редактировать свои сообщения
Вы не можете удалять свои сообщения
Вы не можете голосовать в опросах
Вы не можете прикреплять файлы к сообщениям
Вы не можете скачивать файлы

Текущее время: 15-Апр 13:52
Часовой пояс: UTC + 5