Иван Царевич и Серый Волк 5 (Константин Феоктистов) [2022 г., Мультфильм, приключения, детский, семейный, полнометражный, WEB-DL 1080p] Лицензия

Автор Сообщение
rastor ®

Стаж: 15 лет
Сообщений: 5558

Создавать темы rastor ® написал(а)
09-Фев-2023 07:45
Иван Царевич и Серый Волк 5 Год выпуска: 2022
Страна: Россия
Жанр: Мультфильм, приключения, детский, семейный, полнометражный
Продолжительность: 01:17:46
Перевод: Не требуется
Субтитры: Русские-Режиссер: Константин Феоктистов-В ролях: Никита Ефремов, Михаил Боярский, Татьяна Бунина, Максим Сергеев, Мария Цветкова-Овсянникова, Константин Феоктистов, Олег Куликович-Описание: Была у Ивана с Василисой не жизнь, а сказка. Буквально. И эту сказку они уже знали, а им захотелось отправиться туда-не-знаю-когда. Вот только одна бабочка со своим эффектом крылышком махнула да устроила волшебную перезагрузку. Теперь во всем Тридевятом царстве никто не помнит даже как Ивана звать, включая саму Василису. А значит, чтобы снова добиться принцессы, Ивану с Серым Волком нужно перевернуть всю мультик-вселенную.--Качество: WEB-DL 1080p
Формат: MKV
Видео кодек: H.264
Аудио кодек: AC3
Видео: 1920x1080 24fps 5120Kbps
Аудио:
Аудио Rus: 48kHz 6ch 448Kbps
Аудио Rus: 48kHz 6ch 448Kbps

MediaInfo

Формат : Matroska
Версия формата : Version 4 / Version 2
Размер файла : 3,26 Гбайт
Продолжительность : 1 ч. 17 м.
Общий поток : 6000 Кбит/сек
Название фильма : Иван Царевич и Серый Волк 5
Дата кодирования : UTC 2023-02-08 21:51:24
Программа кодирования : mkvmerge v8.3.0 ('Over the Horizon') 64bit
Библиотека кодирования : libebml v1.3.1 + libmatroska v1.4.2
DURATION : 01:17:45.000000000
NUMBER_OF_FRAMES : 111960
NUMBER_OF_BYTES : 2975570282
_STATISTICS_WRITING_APP : mkvmerge v8.3.0 ('Over the Horizon') 64bit
_STATISTICS_WRITING_DATE_UTC : 2023-02-08 21:51:24
_STATISTICS_TAGS : BPS DURATION NUMBER_OF_FRAMES NUMBER_OF_BYTES
Видео
Идентификатор : 1
Формат : AVC
Формат/Информация : Advanced Video Codec
Профиль формата : High@L4.0
Параметр CABAC формата : Да
Параметр ReFrames формата : 4 кадра
Параметр GOP формата : M=7, N=48
Идентификатор кодека : V_MPEG4/ISO/AVC
Продолжительность : 1 ч. 17 м.
Битрейт : 5120 Кбит/сек
Ширина : 1920 пикселей
Высота : 1080 пикселей
Соотношение сторон : 16:9
Режим частоты кадров : Постоянный
Частота кадров : 24,000 кадра/сек
Цветовое пространство : YUV
Субдискретизация насыщенности : 4:2:0
Битовая глубина : 8 бит
Тип развёртки : Прогрессивная
Бит/(Пиксели*Кадры) : 0.103
Размер потока : 2,71 Гбайт (83%)
Библиотека кодирования : x264 core 152 r2854 e9a5903
Настройки программы : cabac=1 / ref=3 / deblock=1:0:0 / analyse=0x3:0x113 / me=hex / subme=7 / psy=1 / psy_rd=1.00:0.00 / mixed_ref=1 / me_range=16 / chroma_me=1 / trellis=1 / 8x8dct=1 / cqm=0 / deadzone=21,11 / fast_pskip=1 / chroma_qp_offset=-2 / threads=34 / lookahead_threads=5 / sliced_threads=0 / nr=0 / decimate=1 / interlaced=0 / bluray_compat=0 / constrained_intra=0 / bframes=6 / b_pyramid=2 / b_adapt=1 / b_bias=0 / direct=1 / weightb=1 / open_gop=0 / weightp=2 / keyint=48 / keyint_min=25 / scenecut=0 / intra_refresh=0 / rc_lookahead=40 / rc=2pass / mbtree=1 / bitrate=5120 / ratetol=1.0 / qcomp=0.60 / qpmin=0 / qpmax=69 / qpstep=4 / cplxblur=20.0 / qblur=0.5 / vbv_maxrate=7680 / vbv_bufsize=20480 / nal_hrd=none / filler=0 / ip_ratio=1.40 / aq=1:1.00
Default : Да
Forced : Нет
Аудио #1
Идентификатор : 2
Формат : AC-3
Формат/Информация : Audio Coding 3
Расширение режима : CM (complete main)
Параметр Endianness формата : Big
Идентификатор кодека : A_AC3
Продолжительность : 1 ч. 17 м.
Вид битрейта : Постоянный
Битрейт : 448 Кбит/сек
Каналы : 6 каналов
Расположение каналов : Front: L C R, Side: L R, LFE
Частота : 48,0 КГц
Битовая глубина : 16 бит
Метод сжатия : С потерями
Размер потока : 249 Мбайт (7%)
Заголовок : Original AC3 (KP HD)
Язык : Russian
Default : Да
Forced : Да
Аудио #2
Идентификатор : 3
Формат : E-AC-3
Формат/Информация : Audio Coding 3
Параметр Endianness формата : Big
Идентификатор кодека : A_EAC3
Продолжительность : 1 ч. 17 м.
Вид битрейта : Постоянный
Битрейт : 448 Кбит/сек
Каналы : 6 каналов
Расположение каналов : Front: L C R, Side: L R, LFE
Частота : 48,0 КГц
Метод сжатия : С потерями
Размер потока : 249 Мбайт (7%)
Заголовок : Original EAC3 (KP HD)
Язык : Russian
Default : Нет
Forced : Нет
Текст
Идентификатор : 4
Формат : UTF-8
Идентификатор кодека : S_TEXT/UTF8
Идентификатор кодека/Информация : UTF-8 Plain Text
Заголовок : Full
Язык : Russian
Default : Нет
Forced : Нет
Профиль  ЛС 
Показать сообщения:     

Вы не можете начинать темы
Вы не можете отвечать на сообщения
Вы не можете редактировать свои сообщения
Вы не можете удалять свои сообщения
Вы не можете голосовать в опросах
Вы не можете прикреплять файлы к сообщениям
Вы не можете скачивать файлы

Текущее время: 18-Апр 00:02
Часовой пояс: UTC + 5