Одна (Дмитрий Суворов) [2021 г., Драма, триллер, BDRip 1080p] Лицензия

Автор Сообщение
rastor ®

Стаж: 14 лет
Сообщений: 5381

Создавать темы rastor ® написал(а)
16-Окт-2022 12:29
Одна Год выпуска: 2021
Страна: Россия
Жанр: Драма, триллер
Продолжительность: 01:37:17
Перевод: Не требуется
Субтитры: Русские, немецкие-Режиссер: Дмитрий Суворов-В ролях: Надежда Калеганова, Виктор Добронравов, Максим Иванов (I), Мария Сокова, Ян Цапник, Леонид Громов, Никита Тарасов, Владислав Ветров, Виталия Корниенко, Антон Багров, Владимир Стеклов, Илья Кондратенко, Анна Дубровская, Александр Асташёнок, Владимир Виноградов (I), Ёла Санько, Даниил Гольдфельд, Вадим Колганов, Юрий Лопарёв, Сергей Белов, Ирина Чипиженко, Анна Бачалова, Алексей Поляков, Илья Лыков, Сергей Дьяков, Ольга Хохлова (I), Ирина Основина, Полина Рашкина, Пётр Логачёв, Никита Клещёв, Елена Тонунц, Ирина Соболева, Наталья Ромашенко, Анна Родоная, Анна Масальская, Анна Барсукова, Евгений Березовский, Юрий Внуков, Диана Енакаева, Игорь Пехович-Описание: 24 августа 1981 года молодожёны Лариса и Владимир Савицкие ступили на борт самолета, следующего рейсом Комсомольск-на-Амуре - Благовещенск. За 30 минут до посадки гражданский борт АН-24 столкнулся с другим самолётом и развалился на куски на высоте более 5 километров над землёй. Выжить не должен был никто, но произошло чудо — Лариса очнулась посреди обломков самолёта в непроходимой тайге.--Качество: BDRip 1080p
Формат: MKV
Видео кодек: H.264
Аудио кодек: AC3, DTS
Видео: 1920х1080 24fps 9000Kbps
Аудио:
Аудио Rus: AC3 48kHz 6ch 640Kbps
Аудио Rus: DTS 48kHz 6ch 1509Kbps

MediaInfo

Format : Matroska
Format version : Version 4
File size : 7.57 GiB
Duration : 1 h 37 min
Overall bit rate : 11.1 Mb/s
Movie name : Odna 2021
Encoded date : UTC 2022-10-14 20:42:30
Writing application : mkvmerge v59.0.0 ('Shining Star') 64-bit
Writing library : libebml v1.4.2 + libmatroska v1.6.4
Video
ID : 1
Format : AVC
Format/Info : Advanced Video Codec
Format profile : High@L4.1
Format settings : CABAC / 5 Ref Frames
Format settings, CABAC : Yes
Format settings, Reference : 5 frames
Codec ID : V_MPEG4/ISO/AVC
Duration : 1 h 37 min
Bit rate : 9 000 kb/s
Width : 1 920 pixels
Height : 804 pixels
Display aspect ratio : 2.40:1
Frame rate mode : Constant
Frame rate : 24.000 FPS
Color space : YUV
Chroma subsampling : 4:2:0
Bit depth : 8 bits
Scan type : Progressive
Bits/(Pixel*Frame) : 0.243
Stream size : 6.11 GiB (81%)
Writing library : x264 core 164 r3085+55M seleZen t_mod_New [(8 & 10)-bit@all X86_64]
Encoding settings : cabac=1 / ref=5 / deblock=1:-2:-2 / analyse=0x3:0x133 / me=umh / subme=10 / psy=1 / fade_compensate=0.00 / psy_rd=1.01:0.02 / mixed_ref=1 / me_range=32 / chroma_me=1 / trellis=2 / 8x8dct=1 / cqm=0 / deadzone=21,11 / fast_pskip=0 / chroma_qp_offset=-3 / threads=25 / lookahead_threads=4 / sliced_threads=0 / nr=0 / decimate=0 / interlaced=0 / bluray_compat=0 / constrained_intra=0 / fgo=0 / bframes=8 / b_pyramid=2 / b_adapt=2 / b_bias=0 / direct=3 / weightb=1 / open_gop=0 / weightp=2 / keyint=240 / keyint_min=23 / scenecut=40 / intra_refresh=0 / rc_lookahead=60 / rc=2pass / mbtree=0 / bitrate=9000 / ratetol=1.0 / qcomp=0.60 / qpmin=0:0:0 / qpmax=51:51:51 / qpstep=4 / cplxblur=20.0 / qblur=0.5 / vbv_maxrate=50000 / vbv_bufsize=62500 / nal_hrd=none / filler=0 / ip_ratio=1.40 / pb_ratio=1.30 / aq=3:0.80 / aq-sensitivity=10.00 / aq-factor=1.00:1.00:1.00 / aq2=0 / aq3=0
Language : English
Default : Yes
Forced : No
Audio #1
ID : 2
Format : AC-3
Format/Info : Audio Coding 3
Commercial name : Dolby Digital
Codec ID : A_AC3
Duration : 1 h 37 min
Bit rate mode : Constant
Bit rate : 640 kb/s
Channel(s) : 6 channels
Channel layout : L R C LFE Ls Rs
Sampling rate : 48.0 kHz
Frame rate : 31.250 FPS (1536 SPF)
Compression mode : Lossy
Stream size : 445 MiB (6%)
Language : Russian
Service kind : Complete Main
Default : Yes
Forced : Yes
Audio #2
ID : 3
Format : DTS
Format/Info : Digital Theater Systems
Codec ID : A_DTS
Duration : 1 h 37 min
Bit rate mode : Constant
Bit rate : 1 509 kb/s
Channel(s) : 6 channels
Channel layout : C L R Ls Rs LFE
Sampling rate : 48.0 kHz
Frame rate : 93.750 FPS (512 SPF)
Bit depth : 16 bits
Compression mode : Lossy
Stream size : 1.03 GiB (14%)
Language : Russian
Default : No
Forced : No
Menu
00:00:00.000 : Глава 01
00:06:07.292 : Глава 02
00:11:13.833 : Глава 03
00:22:28.125 : Глава 04
00:30:02.708 : Глава 05
00:42:11.708 : Глава 06
00:51:30.792 : Глава 07
00:59:54.417 : Глава 08
01:10:00.417 : Глава 09
01:18:06.542 : Глава 10
01:25:12.958 : Глава 11
01:31:32.292 : Глава 12
Профиль  ЛС 
Рабыня Изаура2

Стаж: 1 год
Сообщений: 1

Создавать темы Рабыня Изаура2 написал(а)
23-Окт-2022 19:29 (спустя 7 дней)
что то в конце они с местоположением напутали, видели ее в одном месте ,стреляла с ракетницы в другом , нашли в третьем . НО летели то они в первое , как они ее нашли я не понял
Профиль  ЛС 
R1MsKiy

Стаж: 13 лет
Сообщений: 150
Откуда: Уфа-родная столица

Создавать темы R1MsKiy написал(а)
28-Окт-2022 17:28 (спустя 4 дня)
Сильный фильм, обязательно к просмотру.
Профиль  ЛС 
Показать сообщения:     

Вы не можете начинать темы
Вы не можете отвечать на сообщения
Вы не можете редактировать свои сообщения
Вы не можете удалять свои сообщения
Вы не можете голосовать в опросах
Вы не можете прикреплять файлы к сообщениям
Вы не можете скачивать файлы

Текущее время: 04-Дек 13:54
Часовой пояс: UTC + 5