Икар / Icare (Карло Вогеле) [2022 г., Мультфильм, приключения, семейный, полнометражный, BDRip 1080p] Лицензия

Автор Сообщение
rastor ®

Стаж: 14 лет
Сообщений: 5381

Создавать темы rastor ® написал(а)
28-Сен-2022 19:48
ИкарIcare Год выпуска: 2022
Страна: Люксембург, Франция, Бельгия
Жанр: Мультфильм, приключения, семейный, полнометражный
Продолжительность: 01:16:25
Перевод: Профессиональный (полное дублирование)
Субтитры: Французские-Режиссер: Карло Вогеле-В ролях: Вульф Ван Каппеллен, Феодор Аткин, Камилль Коттен, Нильс Шнайдер, Игорь ван Дессель, Майа Бэран, Марк Айронс, Алексис Фламан, Изабель Андриве, Исаак Раус-Описание: На острове Крит во время правления царя Миноса люди поклоняются богам Олимпа, которые внушают страх и трепет. Только глупец посмеет им перечить. Юный Икар в одиночку противостоит царю и Олимпу ради своего лучшего друга — таинственного мальчика с головой быка.--Качество: BDRip 1080p
Формат: MKV
Видео кодек: H.264
Аудио кодек: AC3
Видео: 1920x1080 24fps 4366Kbps
Аудио:
Аудио Rus: 48kHz 6ch 384Kbps
Аудио Fra: 48kHz 6ch 640Kbps

MediaInfo

Формат : Matroska
Версия формата : Version 4
Размер файла : 7,09 Гбайт
Продолжительность : 1 ч. 16 м.
Общий поток : 13,3 Мбит/сек
Название фильма : Икар / Icare (2022) от stillet@MegaPeer
Дата кодирования : UTC 2022-09-28 13:22:55
Программа кодирования : mkvmerge v15.0.0 ('Duel with the Devil') 64-bit
Библиотека кодирования : libebml v1.3.5 + libmatroska v1.4.5
Обложка : Yes
Attachments : cover.jpg
Видео
Идентификатор : 1
Формат : AVC
Формат/Информация : Advanced Video Codec
Профиль формата : High@L4.1
Настройки формата : CABAC / 4 Ref Frames
Параметр CABAC формата : Да
Параметр RefFrames формата : 4 кадра
Идентификатор кодека : V_MPEG4/ISO/AVC
Продолжительность : 1 ч. 16 м.
Битрейт : 12,2 Мбит/сек
Ширина : 1 920 пикселей
Высота : 1 080 пикселей
Соотношение сторон : 16:9
Режим частоты кадров : Постоянный
Частота кадров : 24,000 кадра/сек
Цветовое пространство : YUV
Субдискретизация насыщенности : 4:2:0
Битовая глубина : 8 бит
Тип развёртки : Прогрессивная
Бит/(Пиксели*Кадры) : 0.245
Размер потока : 6,50 Гбайт (92%)
Заголовок : stillet@MegaPeer
Библиотека кодирования : x264 core 161 r3018 db0d417
Настройки программы : cabac=1 / ref=4 / deblock=1:-3:-3 / analyse=0x3:0x113 / me=umh / subme=10 / psy=1 / psy_rd=1.00:0.00 / mixed_ref=1 / me_range=32 / chroma_me=1 / trellis=2 / 8x8dct=1 / cqm=0 / deadzone=21,11 / fast_pskip=0 / chroma_qp_offset=-2 / threads=12 / lookahead_threads=3 / sliced_threads=0 / nr=0 / decimate=0 / interlaced=0 / bluray_compat=0 / constrained_intra=0 / bframes=11 / b_pyramid=2 / b_adapt=2 / b_bias=0 / direct=3 / weightb=1 / open_gop=0 / weightp=2 / keyint=240 / keyint_min=24 / scenecut=40 / intra_refresh=0 / rc_lookahead=40 / rc=2pass / mbtree=0 / bitrate=12192 / ratetol=1.0 / qcomp=0.60 / qpmin=0 / qpmax=69 / qpstep=4 / cplxblur=20.0 / qblur=0.5 / vbv_maxrate=50000 / vbv_bufsize=62500 / nal_hrd=none / filler=0 / ip_ratio=1.40 / pb_ratio=1.30 / aq=1:1.10
Язык : French
Default : Да
Forced : Нет
Аудио #1
Идентификатор : 2
Формат : AC-3
Формат/Информация : Audio Coding 3
Коммерческое название : Dolby Digital
Идентификатор кодека : A_AC3
Продолжительность : 1 ч. 16 м.
Вид битрейта : Постоянный
Битрейт : 448 Кбит/сек
Каналы : 6 каналов
Channel layout : L R C LFE Ls Rs
Частота : 48,0 КГц
Частота кадров : 31,250 кадров/сек (1536 SPF)
Метод сжатия : С потерями
Размер потока : 245 Мбайт (3%)
Заголовок : DUB | Мосфильм-Мастер
Язык : Russian
Service kind : Complete Main
Default : Да
Forced : Да
Аудио #2
Идентификатор : 3
Формат : AC-3
Формат/Информация : Audio Coding 3
Коммерческое название : Dolby Digital
Идентификатор кодека : A_AC3
Продолжительность : 1 ч. 16 м.
Вид битрейта : Постоянный
Битрейт : 640 Кбит/сек
Каналы : 6 каналов
Channel layout : L R C LFE Ls Rs
Частота : 48,0 КГц
Частота кадров : 31,250 кадров/сек (1536 SPF)
Метод сжатия : С потерями
Размер потока : 350 Мбайт (5%)
Язык : French
Service kind : Complete Main
Default : Нет
Forced : Нет
Текст
Идентификатор : 4
Формат : UTF-8
Идентификатор кодека : S_TEXT/UTF8
Идентификатор кодека/Информация : UTF-8 Plain Text
Продолжительность : 1 ч. 12 м.
Битрейт : 43 бит/сек
Count of elements : 906
Размер потока : 23,5 Кбайт (0%)
Заголовок : Full
Язык : French
Default : Нет
Forced : Нет
Меню
00:00:00.000 : en:(01)00:00:00:000
00:06:39.125 : en:(02)00:06:39:125
00:12:41.708 : en:(03)00:12:41:708
00:18:58.750 : en:(04)00:18:58:750
00:24:44.833 : en:(05)00:24:44:833
00:30:01.083 : en:(06)00:30:01:083
00:36:20.416 : en:(07)00:36:20:416
00:41:19.791 : en:(08)00:41:19:791
00:48:59.000 : en:(09)00:48:59:000
00:54:51.500 : en:(10)00:54:51:500
01:00:10.416 : en:(11)01:00:10:416
01:06:20.000 : en:(12)01:06:20:000
Профиль  ЛС 
Показать сообщения:     

Вы не можете начинать темы
Вы не можете отвечать на сообщения
Вы не можете редактировать свои сообщения
Вы не можете удалять свои сообщения
Вы не можете голосовать в опросах
Вы не можете прикреплять файлы к сообщениям
Вы не можете скачивать файлы

Текущее время: 04-Дек 13:06
Часовой пояс: UTC + 5