Три тысячи лет желаний / Three Thousand Years of Longing (Джордж Миллер) [2022, Австралия, США, фэнтези, драма, мелодрама, WEB-DLRip-AVC] Dub ((TS)) + Sub Eng + Original Eng

Автор Сообщение
sergoufaVDV ®

Стаж: 6 лет 8 месяцев
Сообщений: 1000
Откуда: Нагаево

Создавать темы sergoufaVDV ® написал(а)
21-Сен-2022 17:24
Три тысячи лет желаний / Three Thousand Years of Longing
Страна: Австралия, США
Жанр: фэнтези, драма, мелодрама
Год выпуска: 2022
Продолжительность: 01:48:21
Перевод: Профессиональный (полное дублирование) (TS)
Cубтитры: английские
Доп. информация о субтитрах: (full, SDH)
Оригинальная аудиодорожка: английский
Режиссер: Джордж Миллер
В ролях: Тильда Суинтон, Идрис Эльба, Пиа Тандерболт, Берк Озтюрк, Энтони Муассе, Алила Браун, Сэйдж Макконнелл, Абель Бонд, Агани Гечмез, Аянту Усман
Описание: Британская лингвист Алетея прилетает из Лондона в Стамбул, чтобы прочитать курс лекций по нарративу. Уже в аэропорту женщина начинает видеть загадочных существ, а когда в одной из многочисленных сувенирных лавочек покупает стеклянную бутылочку и пытается её отмыть, перед ней возникает самый настоящий джинн. Алетея не торопится загадывать три желания, ей интереснее послушать его историю. Джинн начинает свой рассказ — на протяжении трёх тысячелетий у него было три заключения в сосуды, и каждый раз ему не удавалось освободиться из-за большой симпатии к женщинам.
http://multi-up.com/1297813
Качество: WEB-DLRip-AVC
Формат видео: MKV
Видео: MPEG-4 AVC, 1152x480 (2.40:1), 23.976 fps, ~ 2200 kbps avg
Аудио 1 : 48 kHz, AC3 Dolby Digital, 2.0 ch, ~ 224 kbps .Rus
Аудио 2: 48 kHz, AC3 Dolby Digital, 5.1 ch, ~ 448 kbps .Eng

MediaInfo

General
Unique ID : 245929802048794813030948469741343824556 (0xB9045B643D96EF14FCD7808D56D95AAC)
Complete name : Three.Thousand.Years.Of.Longing.2022.WEB-DLRip.Rus.Dub.mkv
Format : Matroska
Format version : Version 4 / Version 2
File size : 2.18 GiB
Duration : 1 h 48 min
Overall bit rate : 2 874 kb/s
Encoded date : UTC 2022-09-18 10:32:11
Writing application : mkvmerge v64.0.0 ('Willows') 64-bit
Writing library : libebml v1.4.2 + libmatroska v1.6.4
Video
ID : 1
Format : AVC
Format/Info : Advanced Video Codec
Format profile : High@L4.1
Format settings : CABAC / 16 Ref Frames
Format settings, CABAC : Yes
Format settings, ReFrames : 16 frames
Codec ID : V_MPEG4/ISO/AVC
Duration : 1 h 48 min
Bit rate : 2 200 kb/s
Width : 1 152 pixels
Height : 480 pixels
Display aspect ratio : 2.40:1
Frame rate mode : Constant
Frame rate : 23.976 (24000/1001) FPS
Color space : YUV
Chroma subsampling : 4:2:0
Bit depth : 8 bits
Scan type : Progressive
Bits/(Pixel*Frame) : 0.166
Stream size : 1.67 GiB (77%)
Writing library : x264 core 148 r2638 7599210
Encoding settings : cabac=1 / ref=16 / deblock=1:0:0 / analyse=0x3:0x113 / me=umh / subme=10 / psy=1 / psy_rd=1.00:0.00 / mixed_ref=1 / me_range=32 / chroma_me=1 / trellis=2 / 8x8dct=1 / cqm=0 / deadzone=21,11 / fast_pskip=1 / chroma_qp_offset=-2 / threads=12 / lookahead_threads=3 / sliced_threads=0 / nr=0 / decimate=1 / interlaced=0 / bluray_compat=0 / constrained_intra=0 / bframes=16 / b_pyramid=2 / b_adapt=2 / b_bias=0 / direct=3 / weightb=1 / open_gop=0 / weightp=2 / keyint=250 / keyint_min=23 / scenecut=40 / intra_refresh=0 / rc_lookahead=60 / rc=2pass / mbtree=1 / bitrate=2200 / ratetol=1.0 / qcomp=0.60 / qpmin=0 / qpmax=69 / qpstep=4 / cplxblur=20.0 / qblur=0.5 / ip_ratio=1.40 / aq=1:1.00
Default : Yes
Forced : No
Color range : Limited
Color primaries : BT.709
Transfer characteristics : BT.709
Matrix coefficients : BT.709
Audio #1
ID : 2
Format : AC-3
Format/Info : Audio Coding 3
Codec ID : A_AC3
Duration : 1 h 48 min
Bit rate mode : Constant
Bit rate : 224 kb/s
Channel(s) : 2 channels
Channel positions : Front: L R
Sampling rate : 48.0 kHz
Frame rate : 31.250 FPS (1536 SPF)
Bit depth : 16 bits
Compression mode : Lossy
Stream size : 174 MiB (8%)
Title : Rus. Dub. TS. AC3. 2.0. 224
Language : Russian
Service kind : Complete Main
Default : Yes
Forced : No
Audio #2
ID : 3
Format : AC-3
Format/Info : Audio Coding 3
Codec ID : A_AC3
Duration : 1 h 48 min
Bit rate mode : Constant
Bit rate : 448 kb/s
Channel(s) : 6 channels
Channel positions : Front: L C R, Side: L R, LFE
Sampling rate : 48.0 kHz
Frame rate : 31.250 FPS (1536 SPF)
Bit depth : 16 bits
Compression mode : Lossy
Stream size : 347 MiB (16%)
Title : Eng.
Language : English
Service kind : Complete Main
Default : No
Forced : No
Text #1
ID : 4
Format : UTF-8
Codec ID : S_TEXT/UTF8
Codec ID/Info : UTF-8 Plain Text
Duration : 1 h 39 min
Bit rate : 49 b/s
Count of elements : 1248
Stream size : 35.9 KiB (0%)
Title : Eng.
Language : English
Default : No
Forced : No
Text #2
ID : 5
Format : UTF-8
Codec ID : S_TEXT/UTF8
Codec ID/Info : UTF-8 Plain Text
Duration : 1 h 39 min
Bit rate : 60 b/s
Count of elements : 1562
Stream size : 44.4 KiB (0%)
Title : Eng. SDH.
Language : English
Default : No
Forced : No
Скриншоты:



Профиль  ЛС 
Показать сообщения:     

Вы не можете начинать темы
Вы не можете отвечать на сообщения
Вы не можете редактировать свои сообщения
Вы не можете удалять свои сообщения
Вы не можете голосовать в опросах
Вы не можете прикреплять файлы к сообщениям
Вы не можете скачивать файлы

Текущее время: 28-Сен 17:34
Часовой пояс: UTC + 5