Топ Ган: Мэверик / Top Gun: Maverick (Джозеф Косински) [2022 г., Боевик, драма, WEB-DL 1080p] Лицензия

Автор Сообщение
rastor ®

Стаж: 14 лет
Сообщений: 5358

Создавать темы rastor ® написал(а)
17-Авг-2022 22:10
Топ Ган: МэверикTop Gun: Maverick Год выпуска: 2022
Страна: США
Жанр: Боевик, драма
Продолжительность: 02:10:15
Перевод: Профессиональный (полное дублирование)
Субтитры: Русские, английские-Режиссер: Джозеф Косински-В ролях: Том Круз, Майлз Теллер, Дженнифер Коннелли, Джон Хэмм, Глен Пауэлл, Льюис Пуллман, Вэл Килмер, Моника Барбаро, Эд Харрис, Джин Луиса Келли-Описание: Пит Митчелл по прозвищу Мэверик более 30 лет остается одним из лучших пилотов ВМФ: бесстрашный летчик-испытатель, он расширяет границы возможного и старательно избегает повышения в звании, которое заставило бы его приземлиться навсегда. Приступив к подготовке отряда выпускников «Топ Ган» для специальной миссии, подобной которой никогда не было, Мэверик встречает лейтенанта Брэдли Брэдшоу, сына своего покойного друга, лейтенанта Ника Брэдшоу.
Впереди — неопределенность, за спиной — призраки прошлого. Мэверик вынужден противостоять своим глубинным страхам, которые грозят ожить в рамках миссии, требующей исключительной самоотверженности от тех, кто будет назначен на вылет.--Качество: WEB-DL 1080p
Формат: MKV
Видео кодек: H.264
Аудио кодек: AC3
Видео: 1916x1006 23.98fps 6589Kbps
Аудио:
Аудио Rus: 48kHz 6ch 384Kbps
Аудио Eng: 48kHz 6ch 768Kbps

MediaInfo

Format : Matroska
Format version : Version 4
File size : 7.04 GiB
Duration : 2 h 10 min
Overall bit rate : 7 744 kb/s
Movie name : Top Gun Maverick 2022 from seleZen
Encoded date : UTC 2022-08-25 18:03:23
Writing application : mkvmerge v59.0.0 ('Shining Star') 64-bit
Writing library : libebml v1.4.2 + libmatroska v1.6.4
Video
ID : 1
Format : AVC
Format/Info : Advanced Video Codec
Format profile : High@L4
Format settings : CABAC / 4 Ref Frames
Format settings, CABAC : Yes
Format settings, Reference : 4 frames
Codec ID : V_MPEG4/ISO/AVC
Duration : 2 h 10 min
Bit rate : 6 589 kb/s
Width : 1 916 pixels
Height : 1 006 pixels
Display aspect ratio : 1.905
Frame rate mode : Constant
Frame rate : 23.976 (24000/1001) FPS
Color space : YUV
Chroma subsampling : 4:2:0
Bit depth : 8 bits
Scan type : Progressive
Bits/(Pixel*Frame) : 0.143
Stream size : 5.99 GiB (85%)
Language : English
Default : Yes
Forced : No
Color range : Limited
Color primaries : BT.709
Transfer characteristics : BT.709
Matrix coefficients : BT.709
Audio #1
ID : 2
Format : AC-3
Format/Info : Audio Coding 3
Commercial name : Dolby Digital
Codec ID : A_AC3
Duration : 2 h 10 min
Bit rate mode : Constant
Bit rate : 384 kb/s
Channel(s) : 6 channels
Channel layout : L R C LFE Ls Rs
Sampling rate : 48.0 kHz
Frame rate : 31.250 FPS (1536 SPF)
Compression mode : Lossy
Stream size : 358 MiB (5%)
Title : Dub
Language : Russian
Service kind : Complete Main
Default : Yes
Forced : Yes
Audio #2
ID : 3
Format : E-AC-3 JOC
Format/Info : Enhanced AC-3 with Joint Object Coding
Commercial name : Dolby Digital Plus with Dolby Atmos
Codec ID : A_EAC3
Duration : 2 h 10 min
Bit rate mode : Constant
Bit rate : 768 kb/s
Channel(s) : 6 channels
Channel layout : L R C LFE Ls Rs
Sampling rate : 48.0 kHz
Frame rate : 31.250 FPS (1536 SPF)
Compression mode : Lossy
Stream size : 715 MiB (10%)
Title : Original
Language : English
Service kind : Complete Main
Default : No
Forced : No
Complexity index : 16
Number of dynamic objects : 15
Bed channel count : 1 channel
Bed channel configuration : LFE
Text #1
ID : 4
Format : UTF-8
Codec ID : S_TEXT/UTF8
Codec ID/Info : UTF-8 Plain Text
Duration : 2 h 2 min
Bit rate : 1 b/s
Frame rate : 0.005 FPS
Count of elements : 35
Stream size : 1.54 KiB (0%)
Title : Forced
Language : Russian
Default : Yes
Forced : Yes
Text #2
ID : 5
Format : UTF-8
Codec ID : S_TEXT/UTF8
Codec ID/Info : UTF-8 Plain Text
Duration : 2 h 9 min
Bit rate : 75 b/s
Frame rate : 0.191 FPS
Count of elements : 1479
Stream size : 71.3 KiB (0%)
Title : Full
Language : Russian
Default : No
Forced : No
Text #3
ID : 6
Format : UTF-8
Codec ID : S_TEXT/UTF8
Codec ID/Info : UTF-8 Plain Text
Duration : 2 h 9 min
Bit rate : 75 b/s
Frame rate : 0.190 FPS
Count of elements : 1473
Stream size : 71.9 KiB (0%)
Title : Full
Language : Ukrainian
Default : No
Forced : No
Text #4
ID : 7
Format : UTF-8
Codec ID : S_TEXT/UTF8
Codec ID/Info : UTF-8 Plain Text
Duration : 1 h 57 min
Bit rate : 52 b/s
Frame rate : 0.207 FPS
Count of elements : 1453
Stream size : 45.4 KiB (0%)
Title : Full
Language : English
Default : No
Forced : No
Menu
00:00:00.000 : Chapter 01
00:03:05.560 : Chapter 02
00:13:40.111 : Chapter 03
00:21:23.283 : Chapter 04
00:32:39.417 : Chapter 05
00:44:47.771 : Chapter 06
00:53:54.943 : Chapter 07
01:00:09.859 : Chapter 08
01:07:38.058 : Chapter 09
01:15:46.171 : Chapter 10
01:23:37.726 : Chapter 11
01:31:49.134 : Chapter 12
01:41:32.926 : Chapter 13
01:48:48.278 : Chapter 14
01:57:22.417 : Chapter 15
02:03:13.143 : Chapter 16


Последний раз редактировалось: rastor (2022-08-26 06:10), всего редактировалось 1 раз
Профиль  ЛС 
vasek666

Стаж: 13 лет
Сообщений: 51

Создавать темы vasek666 написал(а)
20-Авг-2022 01:26 (спустя 2 дня 3 часа)
можно посмотреть
Профиль  ЛС 
Gaff

Стаж: 10 лет
Сообщений: 4
Откуда: ??

Создавать темы Gaff написал(а)
21-Авг-2022 19:32 (спустя 1 день 18 часов)
Встаньте на раздачу плиз
Профиль  ЛС 
rastor ®

Стаж: 14 лет
Сообщений: 5358

Создавать темы rastor ® написал(а)
22-Авг-2022 06:37 (спустя 11 часов)
Торрент-файл обновлен на лицензию.
Профиль  ЛС 
Ilsur777

Стаж: 4 года 6 месяцев
Сообщений: 31
Откуда: Уфа

Создавать темы Ilsur777 написал(а)
27-Авг-2022 14:01 (спустя 5 дней)
Классный фильм можно смотреть
Профиль  ЛС 
M-74

Стаж: 12 лет
Сообщений: 29

Создавать темы M-74 написал(а)
01-Сен-2022 15:00 (спустя 5 дней)
Фильм просто огонь! Некоторые сюжеты несколько раз пересматривал.
Профиль  ЛС 
gron999

Стаж: 13 лет
Сообщений: 48
Откуда: Россия

Создавать темы gron999 написал(а)
15-Сен-2022 23:58 (спустя 14 дней)
Пиндосятская урапатриотическая клюква. Типа, наше ПВО - шляпа, старичок F14 уделывает наши Сушки-57 5го поколения, их пилоты - боги в воздухе... Ну-ну.
Как фильм - ничего особого, сюжет не раз обжеванный и перевиденный. Слюни восторга не пускал при просмотре. Сцены полетов достойные, на этом и всё.
За раздачу спасибо.
Профиль  ЛС 
***SpeeD***

Стаж: 13 лет
Сообщений: 27
Откуда: Россия Матушка

Создавать темы ***SpeeD*** написал(а)
20-Сен-2022 19:14 (спустя 4 дня)
Да прикольный то фильм, на 1 раз. Ну что вы в самом деле, американский фильм никогда не покажет настоящую мощь наших ВКС
Профиль  ЛС 
Показать сообщения:     

Вы не можете начинать темы
Вы не можете отвечать на сообщения
Вы не можете редактировать свои сообщения
Вы не можете удалять свои сообщения
Вы не можете голосовать в опросах
Вы не можете прикреплять файлы к сообщениям
Вы не можете скачивать файлы

Текущее время: 28-Сен 16:38
Часовой пояс: UTC + 5