Воспитанные волками / Взращённые волками / Raised By Wolves / Сезон: 1-2 / Серии: 1-18 из 18 (Люк Скотт, Ридли Скотт, Алекс Габасси) [2020-2022, США, фантастика, фэнтези, триллер, драма, WEB-DLRip] MVO (AlexFilm)

Автор Сообщение
kirzefilmu ®

Стаж: 3 месяца 20 дней
Сообщений: 12

Создавать темы kirzefilmu ® написал(а)
25-Июл-2022 18:00
Воспитанные волками / Raised By Wolves- Год выхода: 2020-2022
Выпущено: США
Жанр: фантастика, фэнтези, триллер, драма
Продолжительность: ~ 00:55:00
Перевод: Профессиональный (многоголосый закадровый) | AlexFilm-Режиссёр: Люк Скотт, Ридли Скотт, Алекс Габасси, Серджо Мимика-Геззан, Джеймс Хоуз, Эрнест Р. Дикерсон, Лукас Эттлин, Суну Гонера-В ролях: Трэвис Фиммел, Аманда Коллин, Абубакар Салим, Винта МакГрат, Ниам Алгар, Феликс Джемисон, Этан Хаззард, Матиас Варела, Джордан Лоугрэн, Аасия Шах-Описание:
Андроиды Мама и Папа воспитывают человеческих детёнышей на колонизированной планете. Но вскоре проблемой подросшего поколения станут религиозные противоречия, разрешить которые придется именно роботам.
IMDB | КиноПоиск | Сэмпл |-Качество: WEB-DLRip
Формат: AVI
Видео Сезон 1: XviD, 704x400 (16:9), 23.976 fps, ~1500 kbps avg
Видео Сезон 2: XviD, 704x352 (2,000), 23.976 fps, ~1500 kbps avg
Аудио: 48 kHz, AC3 Dolby Digital, 2/0 (L,R) ch, ~192 kbps avg
Субтитры: нет-

MediaInfo

Общее
Полное имя : D:\Season 01\Raised_By_Wolves_S01_E01_2020_WEB-DLRip_AF_by_Dalemake.avi
Формат : AVI
Формат/Информация : Audio Video Interleave
Размер файла : 648 Мбайт
Продолжительность : 53 м.
Общий поток : 1706 Кбит/сек
Программа кодирования : VirtualDubMod 1.5.10.3 | www.virtualdub-fr.org || (build 2550/release)
Библиотека кодирования : VirtualDubMod build 2550/release
Видео
Идентификатор : 0
Формат : MPEG-4 Visual
Профиль формата : Advanced Simple@L5
Параметр BVOP формата : 1
Параметр QPel формата : Нет
Параметр GMC формата : Без точки перехода
Параметр матрицы формата : Выборочная
Идентификатор кодека : XVID
Идентификатор кодека/Подсказка : XviD
Продолжительность : 53 м.
Битрейт : 1504 Кбит/сек
Ширина : 704 пикселя
Высота : 400 пикселей
Соотношение сторон : 16:9
Частота кадров : 23,976 кадра/сек
Цветовое пространство : YUV
Субдискретизация насыщенности : 4:2:0
Битовая глубина : 8 бит
Тип развёртки : Прогрессивная
Метод сжатия : С потерями
Бит/(Пиксели*Кадры) : 0.223
Размер потока : 572 Мбайт (88%)
Библиотека кодирования : XviD 69
Аудио
Идентификатор : 1
Формат : AC-3
Формат/Информация : Audio Coding 3
Расширение режима : CM (complete main)
Параметр Endianness формата : Big
Идентификатор кодека : 2000
Продолжительность : 53 м.
Вид битрейта : Постоянный
Битрейт : 192 Кбит/сек
Каналы : 2 канала
Расположение каналов : Front: L R
Частота : 48,0 КГц
Метод сжатия : С потерями
Размер потока : 73,0 Мбайт (11%)
Выравнивание : Разделение по промежуткам
Продолжительность промежутка : 42 мс. (1,00 видеокадр)
Время предзагрузки промежутка : 500 мс.
Общее
Полное имя : D:\Raised_By_Wolves_S01-02_2020-2022_WEB-DLRip_AF_by_Dalemake\Season 02\Raised_By_Wolves_S02_E01_2022_WEB-DLRip_AF_by_Dalemake.avi
Формат : AVI
Формат/Информация : Audio Video Interleave
Размер файла : 607 Мбайт
Продолжительность : 49 м. 42 с.
Общий поток : 1 708 Кбит/сек
Программа кодирования : VirtualDubMod 1.5.10.3 | www.virtualdub-fr.org || (build 2550/release)
Библиотека кодирования : VirtualDubMod build 2550/release
Видео
Идентификатор : 0
Формат : MPEG-4 Visual
Профиль формата : Advanced Simple@L5
Настройки формата : BVOP1 / Custom Matrix
Параметр BVOP формата : 1
Параметр QPel формата : Нет
Параметр GMC формата : Без точки перехода
Параметр матрицы формата : Выборочная
Идентификатор кодека : XVID
Идентификатор кодека/Подсказка : XviD
Продолжительность : 49 м. 42 с.
Битрейт : 1 506 Кбит/сек
Ширина : 704 пикселя
Высота : 352 пикселя
Соотношение сторон : 2,000
Частота кадров : 23,976 (24000/1001) кадра/сек
Цветовое пространство : YUV
Субдискретизация насыщенности : 4:2:0
Битовая глубина : 8 бит
Тип развёртки : Прогрессивная
Метод сжатия : С потерями
Бит/(Пиксели*Кадры) : 0.253
Размер потока : 535 Мбайт (88%)
Библиотека кодирования : XviD 69
Аудио
Идентификатор : 1
Формат : AC-3
Формат/Информация : Audio Coding 3
Коммерческое название : Dolby Digital
Идентификатор кодека : 2000
Продолжительность : 49 м. 42 с.
Вид битрейта : Постоянный
Битрейт : 192 Кбит/сек
Каналы : 2 канала
Channel layout : L R
Частота : 48,0 КГц
Частота кадров : 31,250 кадров/сек (1536 SPF)
Метод сжатия : С потерями
Размер потока : 68,3 Мбайт (11%)
Выравнивание : Разделение по промежуткам
Продолжительность промежутка : 42 мс. (1,00 видеокадр)
Время предзагрузки промежутка : 500 мс.
Service kind : Complete Main
-

Список серий


1×01√ - «Воспитанные волками» / «Raised by Wolves»
1×02√ - «Пентаграмма» / «Pentagram»
1×03√ - «Виртуальная вера» / «Virtual Faith»
1×04√ - «Курс природы» / «Nature’s Course»
1×05√ - «Зараженная память» / «Infected Memory»
1×06√ - «Потерянный рай» / «Lost Paradise»
1×07√ - «Лица» / «Faces»
1×08√ - «Масса» / «Mass»
1×09√ - «Пупочный» / «Umbilical»
1×10√ - «Начало» / «The Beginning»
2×1√ - Коллектив / The Collective
2×2√ - Седьмой / Seven
2×3√ - Хорошие создания / Good Creatures
2×4√ - Контроль / Control
2×5√ - Король / King
2×6√ - Древо / The Tree
2×7√ - Кормёжка / Feeding
2×8√ - Счастье / Happiness
-

Скриншоты








Профиль  ЛС 
Показать сообщения:     

Вы не можете начинать темы
Вы не можете отвечать на сообщения
Вы не можете редактировать свои сообщения
Вы не можете удалять свои сообщения
Вы не можете голосовать в опросах
Вы не можете прикреплять файлы к сообщениям
Вы не можете скачивать файлы

Текущее время: 18-Авг 14:43
Часовой пояс: UTC + 5