Соник 2 в кино / Sonic the Hedgehog 2 (Джефф Фаулер) [2022 г., Фантастика, фэнтези, боевик, комедия, приключения, семейный, WEB-DL 1080p] Лицензия

Автор Сообщение
rastor ®

Стаж: 13 лет
Сообщений: 5331

Создавать темы rastor ® написал(а)
25-Июн-2022 10:24
Соник 2 в киноSonic the Hedgehog 2 Год выпуска: 2022
Страна: США, Япония
Жанр: Фантастика, фэнтези, боевик, комедия, приключения, семейный
Продолжительность: 02:02:18
Перевод:
*Профессиональный (полное дублирование)
*Профессиональный (многоголосый) HDRezka Studio
*Профессиональный (многоголосый) TVShows
*Профессиональный (многоголосый) Jasker
Субтитры: Русские, английские-Режиссер: Джефф Фаулер-В ролях: Джеймс Марсден, Джим Керри, Бен Шварц, Тика Самптер, Идрис Эльба, Наташа Ротуэлл, Адам Палли, Шемар Мур, Ли Мадждуб, Коллин О’Шонесси-Описание: Поселившись в Грин-Хилз, Соник стремится доказать, что у него есть все задатки настоящего героя. И геройское испытание не заставляет себя долго ждать: злодейский доктор Роботник вновь строит козни. На этот раз — с загадочным напарником Наклзом. Вместе они разыскивают бесценный изумруд, в котором заключены силы, способные уничтожать целые цивилизации. Соник объединяется с лисенком Тейлзом, чтобы отправиться в кругосветное путешествие и найти изумруд до того, как он попадет в плохие руки.--Качество: WEB-DL 1080p
Формат: MKV
Видео кодек: H.264
Аудио кодек: AC3
Видео: 1920x800 23.98fps 8345Kbps
Аудио:
Аудио Дубляж: 48kHz 6ch 384Kbps
Аудио HDRezka Studio: 48kHz 6ch 448Kbps
Аудио TVShows: 48kHz 2ch 192Kbps
Аудио Jasker: 48kHz 2ch 192Kbps
Аудио Eng: 48kHz 6ch 768Kbps

MediaInfo

Format : Matroska
Format version : Version 4
File size : 8.84 GiB
Duration : 2 h 2 min
Overall bit rate : 10.3 Mb/s
Movie name : Sonic The Hedgehog 2 2022 from seleZen
Encoded date : UTC 2022-06-24 13:40:08
Writing application : mkvmerge v59.0.0 ('Shining Star') 64-bit
Writing library : libebml v1.4.2 + libmatroska v1.6.4
Video
ID : 1
Format : AVC
Format/Info : Advanced Video Codec
Format profile : High@L4
Format settings : CABAC / 4 Ref Frames
Format settings, CABAC : Yes
Format settings, Reference : 4 frames
Codec ID : V_MPEG4/ISO/AVC
Duration : 2 h 2 min
Bit rate mode : Constant
Bit rate : 8 345 kb/s
Nominal bit rate : 10 000 kb/s
Width : 1 920 pixels
Height : 800 pixels
Display aspect ratio : 2.40:1
Frame rate mode : Constant
Frame rate : 23.976 (24000/1001) FPS
Color space : YUV
Chroma subsampling : 4:2:0
Bit depth : 8 bits
Scan type : Progressive
Bits/(Pixel*Frame) : 0.227
Stream size : 7.14 GiB (81%)
Language : English
Default : Yes
Forced : No
Color range : Limited
Color primaries : BT.709
Transfer characteristics : BT.709
Matrix coefficients : BT.709
Audio #1
ID : 2
Format : AC-3
Format/Info : Audio Coding 3
Commercial name : Dolby Digital
Codec ID : A_AC3
Duration : 2 h 2 min
Bit rate mode : Constant
Bit rate : 384 kb/s
Channel(s) : 6 channels
Channel layout : L R C LFE Ls Rs
Sampling rate : 48.0 kHz
Frame rate : 31.250 FPS (1536 SPF)
Compression mode : Lossy
Stream size : 336 MiB (4%)
Title : Dub
Language : Russian
Service kind : Complete Main
Default : Yes
Forced : Yes
Audio #2
ID : 3
Format : AC-3
Format/Info : Audio Coding 3
Commercial name : Dolby Digital
Codec ID : A_AC3
Duration : 2 h 2 min
Bit rate mode : Constant
Bit rate : 448 kb/s
Channel(s) : 6 channels
Channel layout : L R C LFE Ls Rs
Sampling rate : 48.0 kHz
Frame rate : 31.250 FPS (1536 SPF)
Compression mode : Lossy
Stream size : 392 MiB (4%)
Title : MVO_HDRezka Studio
Language : Russian
Service kind : Complete Main
Default : No
Forced : No
Audio #3
ID : 4
Format : AC-3
Format/Info : Audio Coding 3
Commercial name : Dolby Digital
Codec ID : A_AC3
Duration : 2 h 2 min
Bit rate mode : Constant
Bit rate : 192 kb/s
Channel(s) : 2 channels
Channel layout : L R
Sampling rate : 48.0 kHz
Frame rate : 31.250 FPS (1536 SPF)
Compression mode : Lossy
Stream size : 168 MiB (2%)
Title : MVO_Jasker
Language : Russian
Service kind : Complete Main
Default : No
Forced : No
Audio #4
ID : 5
Format : AC-3
Format/Info : Audio Coding 3
Commercial name : Dolby Digital
Codec ID : A_AC3
Duration : 2 h 2 min
Bit rate mode : Constant
Bit rate : 192 kb/s
Channel(s) : 2 channels
Channel layout : L R
Sampling rate : 48.0 kHz
Frame rate : 31.250 FPS (1536 SPF)
Compression mode : Lossy
Stream size : 168 MiB (2%)
Title : MVO_TVShows
Language : Russian
Service kind : Complete Main
Default : No
Forced : No
Audio #5
ID : 6
Format : E-AC-3 JOC
Format/Info : Enhanced AC-3 with Joint Object Coding
Commercial name : Dolby Digital Plus with Dolby Atmos
Codec ID : A_EAC3
Duration : 2 h 2 min
Bit rate mode : Constant
Bit rate : 768 kb/s
Channel(s) : 6 channels
Channel layout : L R C LFE Ls Rs
Sampling rate : 48.0 kHz
Frame rate : 31.250 FPS (1536 SPF)
Compression mode : Lossy
Stream size : 672 MiB (7%)
Title : Original
Language : English
Service kind : Complete Main
Default : No
Forced : No
Complexity index : 16
Number of dynamic objects : 15
Bed channel count : 1 channel
Bed channel configuration : LFE
Text #1
ID : 7
Format : UTF-8
Codec ID : S_TEXT/UTF8
Codec ID/Info : UTF-8 Plain Text
Duration : 1 h 51 min
Bit rate : 0 b/s
Count of elements : 23
Stream size : 736 Bytes (0%)
Title : Forced [Off.]
Language : Russian
Default : Yes
Forced : Yes
Text #2
ID : 8
Format : UTF-8
Codec ID : S_TEXT/UTF8
Codec ID/Info : UTF-8 Plain Text
Duration : 2 h 1 min
Bit rate : 77 b/s
Count of elements : 1375
Stream size : 69.0 KiB (0%)
Title : Full [Off.]
Language : Russian
Default : No
Forced : No
Text #3
ID : 9
Format : UTF-8
Codec ID : S_TEXT/UTF8
Codec ID/Info : UTF-8 Plain Text
Duration : 1 h 51 min
Bit rate : 1 b/s
Count of elements : 33
Stream size : 1.34 KiB (0%)
Title : Forced [HDRezka Studio]
Language : Russian
Default : No
Forced : No
Text #4
ID : 10
Format : UTF-8
Codec ID : S_TEXT/UTF8
Codec ID/Info : UTF-8 Plain Text
Duration : 1 h 53 min
Bit rate : 91 b/s
Count of elements : 1714
Stream size : 75.5 KiB (0%)
Title : Full [FOCS]
Language : Russian
Default : No
Forced : No
Text #5
ID : 11
Format : UTF-8
Codec ID : S_TEXT/UTF8
Codec ID/Info : UTF-8 Plain Text
Duration : 42 min 25 s
Bit rate : 0 b/s
Count of elements : 7
Stream size : 191 Bytes (0%)
Title : Forced
Language : English
Default : No
Forced : No
Text #6
ID : 12
Format : UTF-8
Codec ID : S_TEXT/UTF8
Codec ID/Info : UTF-8 Plain Text
Duration : 1 h 52 min
Bit rate : 63 b/s
Count of elements : 1650
Stream size : 52.4 KiB (0%)
Title : Full
Language : English
Default : No
Forced : No
Text #7
ID : 13
Format : UTF-8
Codec ID : S_TEXT/UTF8
Codec ID/Info : UTF-8 Plain Text
Duration : 1 h 52 min
Bit rate : 71 b/s
Count of elements : 1983
Stream size : 59.1 KiB (0%)
Title : SDH
Language : English
Default : No
Forced : No
Профиль  ЛС 
ruslanezh

Стаж: 12 лет
Сообщений: 15
Откуда: Уфа

Создавать темы ruslanezh написал(а)
23-Июл-2022 00:38 (спустя 27 дней)
Даже просматривая дома, хотели на половине сеанса встать и уйти. Даже для детского фильма 6+ это тоскливо. Только великолепный Джим Керри и его бесподобная игра не позволила нажать на del). Автору спасибо)
Профиль  ЛС 
Показать сообщения:     

Вы не можете начинать темы
Вы не можете отвечать на сообщения
Вы не можете редактировать свои сообщения
Вы не можете удалять свои сообщения
Вы не можете голосовать в опросах
Вы не можете прикреплять файлы к сообщениям
Вы не можете скачивать файлы

Текущее время: 18-Авг 15:06
Часовой пояс: UTC + 5