Скорая / Ambulance (Майкл Бэй) [2022 г., Боевик, триллер, драма, криминал, BDRip 1080p] Лицензия

Автор Сообщение
rastor ®

Стаж: 14 лет
Сообщений: 5381

Создавать темы rastor ® написал(а)
16-Июн-2022 22:45
СкораяAmbulance Год выпуска: 2022
Страна: США
Жанр: Боевик, триллер, драма, криминал
Продолжительность: 02:16:19
Перевод: Профессиональный (полное дублирование)
Субтитры: Русские, английские-Режиссер: Майкл Бэй-В ролях: Джейк Джилленхол, Яхья Абдул-Матин II, Эйса Гонсалес, Деван Лонг, Гаррет Диллахант, Эй Мартинес, Энди Фавро, Кейр О Доннелл, Хосе Пабло Кантилльо, Колин Вуделл-Описание: Ветеран Уилл Шарп отчаянно нуждается в деньгах, чтобы спасти смертельно больную жену. Он обращается за помощью к брату-преступнику Дэнни, и тот уговаривает его ограбить банк. Однако всё идет не по плану, и братьям приходится угнать машину скорой помощи вместе с двумя заложниками - врачом и раненым полицейским.--Качество: BDRip 1080p
Формат: MKV
Видео кодек: H.264
Аудио кодек: AC3
Видео: 1920х804 23.98fps 14233Kbps
Аудио:
Аудио Rus: 48kHz 6ch 384Kbps
Аудио Ukr: 48kHz 6ch 512Kbps
Аудио Eng: 48kHz 6ch 640Kbps

MediaInfo

Format : Matroska
Format version : Version 4
File size : 14.7 GiB
Duration : 2 h 16 min
Overall bit rate : 15.4 Mb/s
Movie name : Ambulance.2022.BDRip.1080p.ELEKTRI4KA.UNIONGANG.
Encoded date : UTC 2022-06-15 20:37:57
Writing application : mkvmerge v8.3.0 ('Over the Horizon') 32bit
Writing library : libebml v1.3.1 + libmatroska v1.4.2
Video
ID : 1
Format : AVC
Format/Info : Advanced Video Codec
Format profile : High@L4.1
Format settings : CABAC / 5 Ref Frames
Format settings, CABAC : Yes
Format settings, Reference frames : 5 frames
Codec ID : V_MPEG4/ISO/AVC
Duration : 2 h 16 min
Bit rate : 13.9 Mb/s
Width : 1 920 pixels
Height : 804 pixels
Display aspect ratio : 2.40:1
Frame rate mode : Constant
Frame rate : 23.976 (24000/1001) FPS
Color space : YUV
Chroma subsampling : 4:2:0
Bit depth : 8 bits
Scan type : Progressive
Bits/(Pixel*Frame) : 0.376
Stream size : 13.2 GiB (90%)
Writing library : x264 core 164 r3094+49M ~ Encoded by Mocunaman in Portugal
Encoding settings : cabac=1 / ref=5 / deblock=1:-3:-3 / analyse=0x3:0x113 / me=umh / subme=11 / psy=1 / fade_compensate=0.00 / psy_rd=1.00:0.00 / mixed_ref=1 / me_range=32 / chroma_me=1 / trellis=2 / 8x8dct=1 / cqm=0 / deadzone=21,11 / fast_pskip=0 / chroma_qp_offset=-2 / threads=25 / lookahead_threads=4 / sliced_threads=0 / nr=0 / decimate=0 / interlaced=0 / bluray_compat=0 / constrained_intra=0 / fgo=0 / bframes=8 / b_pyramid=2 / b_adapt=2 / b_bias=0 / direct=3 / weightb=1 / open_gop=0 / weightp=2 / keyint=250 / keyint_min=23 / scenecut=40 / intra_refresh=0 / rc_lookahead=60 / rc=crf / mbtree=0 / crf=16.5000 / qcomp=0.65 / qpmin=0:0:0 / qpmax=69:69:69 / qpstep=4 / vbv_maxrate=62500 / vbv_bufsize=78125 / crf_max=0.0 / nal_hrd=none / filler=0 / ip_ratio=1.30 / pb_ratio=1.20 / aq=3:0.80 / aq-sensitivity=10.00 / aq-factor=1.00:1.00:1.00 / aq2=0 / aq3=0 / zones=0,791,crf=14.5/1681,5497,crf=14.5/49024,49288,crf=14.5/51208,51926,crf=14.5/52105,62497,crf=15.5/80491,80565,crf=13.5/82359,83219,crf=14.5/85024,85198,crf=13.5/85486,86344,crf=14.5/89945,90034,crf=14.5/109658,109742,crf=13.5/110359,110639,crf=14.5/111491,111573,crf=13.5/136589,136690,crf=13.5/142885,142915,crf=14.5/187678,187895,crf=14.5/192146,193706,crf=14.5
Language : English
Default : Yes
Forced : No
Color range : Limited
Color primaries : BT.709
Transfer characteristics : BT.709
Matrix coefficients : BT.709
Audio #1
ID : 2
Format : AC-3
Format/Info : Audio Coding 3
Commercial name : Dolby Digital
Codec ID : A_AC3
Duration : 2 h 16 min
Bit rate mode : Constant
Bit rate : 384 kb/s
Channel(s) : 6 channels
Channel layout : L R C LFE Ls Rs
Sampling rate : 48.0 kHz
Frame rate : 31.250 FPS (1536 SPF)
Compression mode : Lossy
Stream size : 374 MiB (2%)
Title : DUB (Pifagor)
Language : Russian
Service kind : Complete Main
Default : Yes
Forced : Yes
Audio #2
ID : 3
Format : AC-3
Format/Info : Audio Coding 3
Commercial name : Dolby Digital
Codec ID : A_AC3
Duration : 2 h 16 min
Bit rate mode : Constant
Bit rate : 512 kb/s
Channel(s) : 6 channels
Channel layout : L R C LFE Ls Rs
Sampling rate : 48.0 kHz
Frame rate : 31.250 FPS (1536 SPF)
Compression mode : Lossy
Stream size : 499 MiB (3%)
Title : MVO (TsIkava Ideya)
Language : Ukrainian
Service kind : Complete Main
Default : No
Forced : No
Audio #3
ID : 4
Format : AC-3
Format/Info : Audio Coding 3
Commercial name : Dolby Digital
Codec ID : A_AC3
Duration : 2 h 16 min
Bit rate mode : Constant
Bit rate : 640 kb/s
Channel(s) : 6 channels
Channel layout : L R C LFE Ls Rs
Sampling rate : 48.0 kHz
Frame rate : 31.250 FPS (1536 SPF)
Compression mode : Lossy
Stream size : 624 MiB (4%)
Title : Original
Language : English
Service kind : Complete Main
Default : No
Forced : No
Text #1
ID : 5
Format : UTF-8
Codec ID : S_TEXT/UTF8
Codec ID/Info : UTF-8 Plain Text
Duration : 2 h 13 min
Bit rate : 0 b/s
Count of elements : 11
Stream size : 461 Bytes (0%)
Title : Forced
Language : Russian
Default : Yes
Forced : Yes
Text #2
ID : 6
Format : UTF-8
Codec ID : S_TEXT/UTF8
Codec ID/Info : UTF-8 Plain Text
Duration : 2 h 12 min
Bit rate : 128 b/s
Count of elements : 2304
Stream size : 124 KiB (0%)
Title : Full v.1
Language : Russian
Default : No
Forced : No
Text #3
ID : 7
Format : UTF-8
Codec ID : S_TEXT/UTF8
Codec ID/Info : UTF-8 Plain Text
Duration : 2 h 13 min
Bit rate : 138 b/s
Count of elements : 2370
Stream size : 136 KiB (0%)
Title : Full v.2
Language : Russian
Default : No
Forced : No
Text #4
ID : 8
Format : UTF-8
Codec ID : S_TEXT/UTF8
Codec ID/Info : UTF-8 Plain Text
Duration : 2 h 11 min
Bit rate : 90 b/s
Count of elements : 2500
Stream size : 87.5 KiB (0%)
Title : SDH
Language : English
Default : No
Forced : No
Text #5
ID : 9
Format : UTF-8
Codec ID : S_TEXT/UTF8
Codec ID/Info : UTF-8 Plain Text
Duration : 2 h 11 min
Bit rate : 83 b/s
Count of elements : 2354
Stream size : 80.4 KiB (0%)
Title : Full
Language : English
Default : No
Forced : No
Menu
00:00:00.000 : en:Chapter 01
00:07:57.268 : en:Chapter 02
00:15:41.941 : en:Chapter 03
00:22:57.543 : en:Chapter 04
00:29:59.631 : en:Chapter 05
00:37:01.803 : en:Chapter 06
00:43:27.647 : en:Chapter 07
00:49:34.555 : en:Chapter 08
00:56:07.656 : en:Chapter 09
01:02:35.168 : en:Chapter 10
01:07:09.025 : en:Chapter 11
01:12:45.069 : en:Chapter 12
01:21:00.606 : en:Chapter 13
01:31:12.717 : en:Chapter 14
01:40:04.207 : en:Chapter 15
01:49:48.373 : en:Chapter 16
01:56:06.251 : en:Chapter 17
02:00:46.030 : en:Chapter 18
02:06:52.522 : en:Chapter 19
02:13:47.853 : en:Chapter 20
Профиль  ЛС 
Ilsur777

Стаж: 4 года 8 месяцев
Сообщений: 31
Откуда: Уфа

Создавать темы Ilsur777 написал(а)
20-Июн-2022 00:17 (спустя 3 дня)
Классный фильм!
Профиль  ЛС 
Ььь

Стаж: 14 лет
Сообщений: 23
Откуда: Уфа

Создавать темы Ььь написал(а)
22-Ноя-2022 18:02 (спустя 5 месяцев 2 дня)
Фильм сказка, столько неправдоподобных моментов
Профиль  ЛС 
Показать сообщения:     

Вы не можете начинать темы
Вы не можете отвечать на сообщения
Вы не можете редактировать свои сообщения
Вы не можете удалять свои сообщения
Вы не можете голосовать в опросах
Вы не можете прикреплять файлы к сообщениям
Вы не можете скачивать файлы

Текущее время: 04-Дек 13:01
Часовой пояс: UTC + 5