Непослушник (Владимир Котт) [2021 г., Комедия, WEB-DL 1080p] Лицензия

Автор Сообщение
rastor ®

Стаж: 13 лет
Сообщений: 5331

Создавать темы rastor ® написал(а)
12-Мар-2022 20:05
Непослушник Год выпуска: 2021
Страна: Россия
Жанр: Комедия
Продолжительность: 01:55:09
Перевод: Не требуется-Режиссер: Владимир Котт-В ролях: Виктор Хориняк, Таисия Вилкова, Аглая Тарасова, Татьяна Орлова, Юрий Кузнецов, Максим Лагашкин, Антон Ескин, Сергей Селин, Александр Синюков, Олег Каменщиков-Описание: Известный блогер-пранкер Дима в погоне за популярностью в сети устраивает жесткие розыгрыши. Один из пранков он снимает в стенах церкви, где служит его друг детства. Ролик провоцирует возмущение в среде верующих и на Диму заводят дело. Уходя от преследования полиции, Дима укрывается в месте, где его точно не будут искать — в маленьком провинциальном монастыре, выдавая себя за того самого друга-послушника.--Качество: WEB-DL 1080p
Формат: MKV
Видео кодек: H.264
Аудио кодек: AC3
Видео: 1920x1080 25fps 6144Kbps
Аудио: 48kHz 6ch 640Kbps

MediaInfo

Format : Matroska
Format version : Version 4
File size : 5.43 GiB
Duration : 1 h 55 min
Overall bit rate mode : Constant
Overall bit rate : 6 745 kb/s
Movie name : Непослушник
Encoded date : UTC 2022-03-09 21:55:25
Writing application : mkvmerge v63.0.0 ('Everything') 32-bit
Writing library : libebml v1.4.2 + libmatroska v1.6.4
Video
ID : 1
Format : AVC
Format/Info : Advanced Video Codec
Format profile : Baseline@L4
Format settings : 2 Ref Frames
Format settings, CABAC : No
Format settings, Reference frames : 2 frames
Format settings, GOP : M=1, N=25
Codec ID : V_MPEG4/ISO/AVC
Duration : 1 h 55 min
Bit rate mode : Constant
Bit rate : 6 144 kb/s
Width : 1 920 pixels
Height : 1 080 pixels
Display aspect ratio : 16:9
Frame rate mode : Constant
Frame rate : 25.000 FPS
Color space : YUV
Chroma subsampling : 4:2:0
Bit depth : 8 bits
Scan type : Progressive
Bits/(Pixel*Frame) : 0.119
Stream size : 4.91 GiB (90%)
Default : Yes
Forced : No
Audio
ID : 2
Format : AC-3
Format/Info : Audio Coding 3
Commercial name : Dolby Digital
Codec ID : A_AC3
Duration : 1 h 55 min
Bit rate mode : Constant
Bit rate : 640 kb/s
Channel(s) : 6 channels
Channel layout : L R C LFE Ls Rs
Sampling rate : 48.0 kHz
Frame rate : 31.250 FPS (1536 SPF)
Compression mode : Lossy
Stream size : 527 MiB (9%)
Title : Original (KION)
Language : Russian
Service kind : Complete Main
Default : Yes
Forced : No
Профиль  ЛС 
gron999

Стаж: 13 лет
Сообщений: 47
Откуда: Россия

Создавать темы gron999 написал(а)
29-Июн-2022 23:42 (спустя 3 месяца 17 дней)
Неожиданно классный, добрый и неглупый фильм. Спасибо!
Профиль  ЛС 
Показать сообщения:     

Вы не можете начинать темы
Вы не можете отвечать на сообщения
Вы не можете редактировать свои сообщения
Вы не можете удалять свои сообщения
Вы не можете голосовать в опросах
Вы не можете прикреплять файлы к сообщениям
Вы не можете скачивать файлы

Текущее время: 18-Авг 14:25
Часовой пояс: UTC + 5