Охота на волка / Hunter Hunter (Шон Линден) [2020 г., Триллер, драма, BDRip 1080p] MVO Лицензия

Автор Сообщение
rastor ®

Стаж: 13 лет
Сообщений: 5102

Создавать темы rastor ® написал(а)
07-Янв-2022 17:13
Охота на волкаHunter Hunter Год выпуска: 2020
Страна: Канада
Жанр: Триллер, драма
Продолжительность: 01:33:08
Перевод: Профессиональный (многоголосый)
Субтитры: Английские-Режиссер: Шон Линден-В ролях: Камилль Салливан, Саммер Х. Хауэлл, Девон Сава, Ник Стал, Гэбриел Дэниелс, Лорен Кокрейн, Джейд Майкл, Эрик Атхавале, Карл Тордарсон, Блейк Тейлор-Описание: Джозеф Мерсо, его жена Энн и их дочь Рене живут в глуши, зарабатывают на жизнь ловлей животных и изо всех сил пытаются свести концы с концами. Проблема в том, что, как они считают, их добычу из силков крадет бродячий волк. Решив поймать хищника с поличным, Джозеф уходит на охоту. Энн и Рене приходится в тревоге ожидать возвращения мужа и отца. Однако, он не появляется, но через пару дней рядом с домом они находят тяжело раненого мужчину. Энн не понимает, как эти события связаны, но тревога в её сердце начинает нарастать...- -Качество: BDRip 1080p
Формат: MKV
Видео кодек: H.264
Аудио кодек: AC3
Видео: 1920x804 23.98fps 16588Kbps
Аудио:
Аудио Rus: 48kHz 6ch 448Kbps
Аудио Eng: 48kHz 6ch 640Kbps

MediaInfo

Format : Matroska
Format version : Version 4
File size : 11.2 GiB
Duration : 1 h 33 min
Overall bit rate : 17.3 Mb/s
Movie name : Ohota.na.volka.2020.BDRip.1080p.ELEKTRI4KA.UNIONGANG.
Encoded date : UTC 2022-01-06 19:19:33
Writing application : mkvmerge v8.3.0 ('Over the Horizon') 32bit
Writing library : libebml v1.3.1 + libmatroska v1.4.2
Video
ID : 1
Format : AVC
Format/Info : Advanced Video Codec
Format profile : High@L4.1
Format settings : CABAC / 5 Ref Frames
Format settings, CABAC : Yes
Format settings, Reference frames : 5 frames
Codec ID : V_MPEG4/ISO/AVC
Duration : 1 h 33 min
Bit rate : 16.2 Mb/s
Width : 1 920 pixels
Height : 804 pixels
Display aspect ratio : 2.40:1
Frame rate mode : Constant
Frame rate : 23.976 (24000/1001) FPS
Color space : YUV
Chroma subsampling : 4:2:0
Bit depth : 8 bits
Scan type : Progressive
Bits/(Pixel*Frame) : 0.437
Stream size : 10.5 GiB (94%)
Writing library : x264M - core 161 r3027 4121277
Encoding settings : cabac=1 / ref=5 / deblock=1:-3:-3 / analyse=0x3:0x133 / me=umh / subme=10 / psy=1 / psy_rd=1.00:0.00 / mixed_ref=1 / me_range=32 / chroma_me=1 / trellis=2 / 8x8dct=1 / cqm=0 / deadzone=21,11 / fast_pskip=0 / chroma_qp_offset=-2 / threads=12 / lookahead_threads=3 / sliced_threads=0 / nr=0 / decimate=0 / interlaced=0 / bluray_compat=0 / constrained_intra=0 / bframes=10 / b_pyramid=2 / b_adapt=2 / b_bias=0 / direct=3 / weightb=1 / open_gop=0 / weightp=2 / keyint=250 / keyint_min=23 / scenecut=40 / intra_refresh=0 / rc_lookahead=60 / rc=crf / mbtree=0 / crf=15.8 / qcomp=0.60 / qpmin=0 / qpmax=69 / qpstep=4 / vbv_maxrate=62500 / vbv_bufsize=78125 / crf_max=0.0 / nal_hrd=none / filler=0 / ip_ratio=1.30 / pb_ratio=1.20 / aq=3:0.85
Default : Yes
Forced : No
Color range : Limited
Color primaries : BT.709
Transfer characteristics : BT.709
Matrix coefficients : BT.709
Audio #1
ID : 2
Format : AC-3
Format/Info : Audio Coding 3
Commercial name : Dolby Digital
Codec ID : A_AC3
Duration : 1 h 33 min
Bit rate mode : Constant
Bit rate : 448 kb/s
Channel(s) : 6 channels
Channel layout : L R C LFE Ls Rs
Sampling rate : 48.0 kHz
Frame rate : 31.250 FPS (1536 SPF)
Compression mode : Lossy
Stream size : 298 MiB (3%)
Title : MVO (KinoPoisk HD)
Language : Russian
Service kind : Complete Main
Default : Yes
Forced : Yes
Audio #2
ID : 3
Format : AC-3
Format/Info : Audio Coding 3
Commercial name : Dolby Digital
Codec ID : A_AC3
Duration : 1 h 33 min
Bit rate mode : Constant
Bit rate : 640 kb/s
Channel(s) : 6 channels
Channel layout : L R C LFE Ls Rs
Sampling rate : 48.0 kHz
Frame rate : 31.250 FPS (1536 SPF)
Compression mode : Lossy
Stream size : 426 MiB (4%)
Title : Original
Language : English
Service kind : Complete Main
Default : No
Forced : No
Text #1
ID : 4
Format : UTF-8
Codec ID : S_TEXT/UTF8
Codec ID/Info : UTF-8 Plain Text
Duration : 1 h 23 min
Bit rate : 31 b/s
Count of elements : 806
Stream size : 19.5 KiB (0%)
Language : English
Default : No
Forced : No
Text #2
ID : 5
Format : UTF-8
Codec ID : S_TEXT/UTF8
Codec ID/Info : UTF-8 Plain Text
Duration : 1 h 30 min
Bit rate : 38 b/s
Count of elements : 1067
Stream size : 25.4 KiB (0%)
Title : SDH
Language : English
Default : No
Forced : No
Menu
00:00:00.000 : :Chapter 01
00:08:04.693 : :Chapter 02
00:16:31.407 : :Chapter 03
00:23:29.742 : :Chapter 04
00:30:48.847 : :Chapter 05
00:38:18.379 : :Chapter 06
00:45:41.739 : :Chapter 07
00:54:09.955 : :Chapter 08
01:00:42.848 : :Chapter 09
01:08:37.405 : :Chapter 10
01:16:06.771 : :Chapter 11
01:22:55.596 : :Chapter 12
Профиль  ЛС 
Alex4951

Стаж: 11 лет
Сообщений: 118
Откуда: Уфа

Создавать темы Alex4951 написал(а)
11-Янв-2022 13:27 (спустя 3 дня)
жёсткий фильм, но конец прям порадовал))
Профиль  ЛС 
Показать сообщения:     

Вы не можете начинать темы
Вы не можете отвечать на сообщения
Вы не можете редактировать свои сообщения
Вы не можете удалять свои сообщения
Вы не можете голосовать в опросах
Вы не можете прикреплять файлы к сообщениям
Вы не можете скачивать файлы

Текущее время: 22-Янв 10:58
Часовой пояс: UTC + 5