Гнев человеческий / Wrath of Man (Гай Ричи) [2021 г., Боевик, триллер, WEB-DL 1080p] Лицензия

Автор Сообщение
rastor ®

Стаж: 12 лет
Сообщений: 5232

Создавать темы rastor ® написал(а)
28-Май-2021 16:35
Гнев человеческийWrath of Man Год выпуска: 2021
Страна: США, Великобритания
Жанр: Боевик, триллер
Продолжительность: 01:58:56
Перевод: Профессиональный (полное дублирование)
Cубтитры: Русские, украинские, английские-Режиссер: Гай Ричи-В ролях: Джейсон Стэйтем, Холт Маккэллани, Джеффри Донован, Джош Хартнетт, Лаз Алонсо, Алекс Фернс, Рауль Кастильо, Деобиа Опарей, Скотт Иствуд, Нив Алгар-Описание: Эйч — загадочный и холодный на вид джентльмен, но внутри него пылает жажда справедливости. Преследуя свои мотивы, он внедряется в инкассаторскую компанию, чтобы выйти на соучастников серии многомиллионных ограблений, потрясших Лос-Анджелес. В этой запутанной игре у каждого своя роль, но под подозрением оказываются все. Виновных же обязательно постигнет гнев человеческий.- -Качество: WEB-DL 1080p
Формат: MKV
Видео кодек: H.264
Аудио кодек: AC3
Видео: 1920x800 23.98fps 8355Kbps
Аудио:
Аудио Rus: 48kHz 6ch 384Kbps
Аудио Ukr: 48kHz 2ch 192Kbps
Аудио Eng: 48kHz 6ch 640Kbps

MediaInfo

Формат : Matroska
Версия формата : Version 4 / Version 2
Размер файла : 8,11 Гбайт
Продолжительность : 1 ч. 58 м.
Общий поток : 9766 Кбит/сек
Название фильма : Gnev.chelovecheskiy.2021.AMZN.WEB-DL.1080p.ELEKTRI4KA.UNIONGANG.
Дата кодирования : UTC 2021-06-04 11:38:18
Программа кодирования : mkvmerge v8.3.0 ('Over the Horizon') 64bit
Библиотека кодирования : libebml v1.3.1 + libmatroska v1.4.2
DURATION : 01:50:47.076000000
NUMBER_OF_FRAMES : 1990
NUMBER_OF_BYTES : 58191
_STATISTICS_WRITING_APP : mkvmerge v8.3.0 ('Over the Horizon') 64bit
_STATISTICS_WRITING_DATE_UTC : 2021-06-04 11:38:18
_STATISTICS_TAGS : BPS DURATION NUMBER_OF_FRAMES NUMBER_OF_BYTES
Видео
Идентификатор : 1
Формат : AVC
Формат/Информация : Advanced Video Codec
Профиль формата : High@L4.0
Параметр CABAC формата : Да
Параметр ReFrames формата : 4 кадра
Идентификатор кодека : V_MPEG4/ISO/AVC
Продолжительность : 1 ч. 58 м.
Вид битрейта : Постоянный
Битрейт : 8355 Кбит/сек
Номинальный битрейт : 10000 Кбит/сек
Ширина : 1920 пикселей
Высота : 800 пикселей
Соотношение сторон : 2,40:1
Режим частоты кадров : Постоянный
Частота кадров : 23,976 кадра/сек
Цветовое пространство : YUV
Субдискретизация насыщенности : 4:2:0
Битовая глубина : 8 бит
Тип развёртки : Прогрессивная
Бит/(Пиксели*Кадры) : 0.227
Размер потока : 6,94 Гбайт (86%)
Язык : English
Default : Да
Forced : Нет
Основные цвета : BT.709
Характеристики трансфера : BT.709
Коэффициенты матрицы : BT.709
Аудио #1
Идентификатор : 2
Формат : AC-3
Формат/Информация : Audio Coding 3
Расширение режима : CM (complete main)
Параметр Endianness формата : Big
Идентификатор кодека : A_AC3
Продолжительность : 1 ч. 58 м.
Вид битрейта : Постоянный
Битрейт : 384 Кбит/сек
Каналы : 6 каналов
Расположение каналов : Front: L C R, Side: L R, LFE
Частота : 48,0 КГц
Битовая глубина : 16 бит
Метод сжатия : С потерями
Размер потока : 327 Мбайт (4%)
Заголовок : DUB (iTunes)
Язык : Russian
Default : Да
Forced : Да
Аудио #2
Идентификатор : 3
Формат : AC-3
Формат/Информация : Audio Coding 3
Расширение режима : CM (complete main)
Параметр Endianness формата : Big
Идентификатор кодека : A_AC3
Продолжительность : 1 ч. 58 м.
Вид битрейта : Постоянный
Битрейт : 192 Кбит/сек
Каналы : 2 канала
Расположение каналов : Front: L R
Частота : 48,0 КГц
Битовая глубина : 16 бит
Метод сжатия : С потерями
Размер потока : 163 Мбайт (2%)
Заголовок : Dub [Line], AC3 2.0 192 Kbps
Язык : Ukrainian
Default : Нет
Forced : Нет
Аудио #3
Идентификатор : 4
Формат : E-AC-3
Формат/Информация : Audio Coding 3
Параметр Endianness формата : Big
Идентификатор кодека : A_EAC3
Продолжительность : 1 ч. 58 м.
Вид битрейта : Постоянный
Битрейт : 640 Кбит/сек
Каналы : 6 каналов
Расположение каналов : Front: L C R, Side: L R, LFE
Частота : 48,0 КГц
Метод сжатия : С потерями
Размер потока : 544 Мбайт (7%)
Заголовок : Original
Язык : English
Default : Нет
Forced : Нет
Текст #1
Идентификатор : 5
Формат : UTF-8
Идентификатор кодека : S_TEXT/UTF8
Идентификатор кодека/Информация : UTF-8 Plain Text
Заголовок : Forced
Язык : Russian
Default : Да
Forced : Нет
Текст #2
Идентификатор : 6
Формат : UTF-8
Идентификатор кодека : S_TEXT/UTF8
Идентификатор кодека/Информация : UTF-8 Plain Text
Заголовок : Full (iTunes)
Язык : Russian
Default : Нет
Forced : Нет
Текст #3
Идентификатор : 7
Формат : UTF-8
Идентификатор кодека : S_TEXT/UTF8
Идентификатор кодека/Информация : UTF-8 Plain Text
Заголовок : Full (Enigma)
Язык : Russian
Default : Нет
Forced : Нет
Текст #4
Идентификатор : 8
Формат : UTF-8
Идентификатор кодека : S_TEXT/UTF8
Идентификатор кодека/Информация : UTF-8 Plain Text
Заголовок : Ukr Forced
Язык : Ukrainian
Default : Нет
Forced : Да
Текст #5
Идентификатор : 9
Формат : UTF-8
Идентификатор кодека : S_TEXT/UTF8
Идентификатор кодека/Информация : UTF-8 Plain Text
Заголовок : Full
Язык : English
Default : Нет
Forced : Нет
Текст #6
Идентификатор : 10
Формат : UTF-8
Идентификатор кодека : S_TEXT/UTF8
Идентификатор кодека/Информация : UTF-8 Plain Text
Заголовок : English (SDH)
Язык : English
Default : Нет
Forced : Нет


Последний раз редактировалось: rastor (2021-06-04 17:26), всего редактировалось 3 раз(а)
Профиль  ЛС 
Валерий533

Стаж: 3 года 9 месяцев
Сообщений: 14

Создавать темы Валерий533 написал(а)
28-Май-2021 20:25 (спустя 3 часа)
не советую качать, запись голоса как из консервной банки. будем ждать дальше
Профиль  ЛС 
PoloTenchik02

Стаж: 12 лет
Сообщений: 367

Создавать темы PoloTenchik02 написал(а)
31-Май-2021 20:41 (спустя 3 дня)
Спасибо большое отличный фильм
Профиль  ЛС 
rastor ®

Стаж: 12 лет
Сообщений: 5232

Создавать темы rastor ® написал(а)
04-Июн-2021 17:23 (спустя 3 дня)
Торрент-файл обновлен на лицензию.
Профиль  ЛС 
Показать сообщения:     

Вы не можете начинать темы
Вы не можете отвечать на сообщения
Вы не можете редактировать свои сообщения
Вы не можете удалять свои сообщения
Вы не можете голосовать в опросах
Вы не можете прикреплять файлы к сообщениям
Вы не можете скачивать файлы

Текущее время: 15-Июн 00:07
Часовой пояс: UTC + 5