Райя и последний дракон / Raya and the Last Dragon (Дон Холл, Карлос Лопес Эстрада, Пол Бриггс) [2021 г., Мультфильм, фэнтези, боевик, комедия, приключения, семейный, полнометражный, WEB-DL 1080p] Лицензия

Автор Сообщение
rastor ®

Стаж: 12 лет
Сообщений: 5239

Создавать темы rastor ® написал(а)
07-Мар-2021 19:53
Райя и последний драконRaya and the Last Dragon Год выпуска: 2021
Страна: США
Жанр: Мультфильм, фэнтези, боевик, комедия, приключения, семейный, полнометражный
Продолжительность: 01:47:29
Перевод: Профессиональный (полное дублирование)
Cубтитры: Русские, английские-Режиссер: Дон Холл, Карлос Лопес Эстрада, Пол Бриггс-В ролях: Келли Мари Трэн, Аквафина, Айзек Ванг, Джемма Чан, Дэниэл Дэ Ким, Бенедикт Вонг, Джона Сяо, Сандра О, Талия Чан, Люсиль Сун-Описание: Отважной воительнице по имени Райя и её верному спутнику Тук-Туку предстоит покинуть родное королевство Кумандра, чтобы отыскать последнего оставшегося в мире дракона, и с его помощью вернуть надежду на победу над могущественным врагом.- -Качество: WEB-DL 1080p
Формат: MKV
Видео кодек: H.264
Аудио кодек: AC3
Видео: 1920x804 23.98fps 15564Kbps
Аудио:
Аудио Rus: 48kHz 6ch 384Kbps
Аудио Eng: 48kHz 6ch 640Kbps

MediaInfo

Format: Matroska
Format version: Version 4
File size: 12.2 GiB
Duration: 1 h 47 min
Overall bit rate: 16.3 Mb/s
Movie name: Raya and the Last Dragon 2021 from seleZen
Encoded date: UTC 2021-05-07 17:00:52
Writing application: mkvmerge v55.0.0 ('Waiting For Space') 64-bit
Writing library: libebml v1.4.2 + libmatroska v1.6.4
Video
ID: 1
Format: AVC
Format/Info: Advanced Video Codec
Format profile: High@L4.1
Format settings: CABAC / 5 Ref Frames
Format settings, CABAC: Yes
Format settings, Reference: 5 frames
Codec ID: V_MPEG4/ISO/AVC
Duration: 1 h 47 min
Bit rate: 15.2 Mb/s
Width: 1 920 pixels
Height: 804 pixels
Display aspect ratio: 2.40:1
Frame rate mode: Constant
Frame rate: 23.976 (24000/1001) FPS
Color space: YUV
Chroma subsampling: 4:2:0
Bit depth: 8 bits
Scan type: Progressive
Bits/(Pixel*Frame): 0.412
Stream size: 11.4 GiB (94%)
Title: MTeam
Writing library: x264 core 157 r2938 2b00a84 TnP@MTeam Mod
Encoding settings: cabac=1 / ref=5 / deblock=1:-3:-3 / analyse=0x3:0x133 / me=umh / subme=10 / psy=1 / psy_rd=1.05:0.00 / mixed_ref=1 / me_range=32 / chroma_me=1 / trellis=2 / 8x8dct=1 / cqm=0 / deadzone=21, 11 / fast_pskip=0 / chroma_qp_offset=-2 / threads=12 / lookahead_threads=2 / sliced_threads=0 / nr=0 / decimate=0 / interlaced=0 / bluray_compat=0 / constrained_intra=0 / bframes=8 / b_pyramid=2 / b_adapt=2 / b_bias=0 / direct=3 / weightb=1 / open_gop=0 / weightp=2 / keyint=250 / keyint_min=24 / scenecut=40 / intra_refresh=0 / rc_lookahead=250 / rc=crf / mbtree=0 / crf=16.8 / qcomp=0.60 / qpmin=0 / qpmax=69 / qpstep=4 / vbv_maxrate=62500 / vbv_bufsize=78125 / crf_max=0.0 / nal_hrd=none / filler=0 / ip_ratio=1.30 / pb_ratio=1.20 / aq=3:0.80
Language: English
Default: Yes
Forced: No
Color range: Limited
Color primaries: BT.709
Matrix coefficients: BT.709
Audio #1
ID: 2
Format: AC-3
Format/Info: Audio Coding 3
Commercial name: Dolby Digital
Codec ID: A_AC3
Duration: 1 h 47 min
Bit rate mode: Constant
Bit rate: 384 kb/s
Channel(s): 6 channels
Channel layout: L R C LFE Ls Rs
Sampling rate: 48.0 kHz
Frame rate: 31.250 FPS (1536 SPF)
Compression mode: Lossy
Stream size: 295 MiB (2%)
Title: iTunes
Language: Russian
Service kind: Complete Main
Default: Yes
Forced: Yes
Audio #2
ID: 3
Format: AC-3
Format/Info: Audio Coding 3
Commercial name: Dolby Digital
Codec ID: A_AC3
Duration: 1 h 47 min
Bit rate mode: Constant
Bit rate: 640 kb/s
Channel(s): 6 channels
Channel layout: L R C LFE Ls Rs
Sampling rate: 48.0 kHz
Frame rate: 31.250 FPS (1536 SPF)
Compression mode: Lossy
Stream size: 492 MiB (4%)
Title: Original
Language: English
Service kind: Complete Main
Default: No
Forced: No
Text #1
ID: 4
Format: UTF-8
Codec ID: S_TEXT/UTF8
Codec ID/Info: UTF-8 Plain Text
Duration: 51 min 55 s
Bit rate: 1 b/s
Count of elements: 13
Stream size: 530 Bytes (0%)
Title: Forced
Language: Russian
Default: Yes
Forced: Yes
Text #2
ID: 5
Format: UTF-8
Codec ID: S_TEXT/UTF8
Codec ID/Info: UTF-8 Plain Text
Duration: 1 h 45 min
Bit rate: 69 b/s
Count of elements: 1149
Stream size: 53.9 KiB (0%)
Title: Full
Language: Russian
Default: No
Forced: No
Text #3
ID: 6
Format: UTF-8
Codec ID: S_TEXT/UTF8
Codec ID/Info: UTF-8 Plain Text
Duration: 1 h 37 min
Bit rate: 68 b/s
Count of elements: 1919
Stream size: 48.8 KiB (0%)
Title: SDH
Language: English
Default: No
Forced: No
Menu
00:00:00.000: en:Chapter 01
00:08:08.697: en:Chapter 02
00:11:00.159: en:Chapter 03
00:15:16.415: en:Chapter 04
00:20:15.339: en:Chapter 05
00:28:28.749: en:Chapter 06
00:35:56.905: en:Chapter 07
00:37:43.261: en:Chapter 08
00:41:12.595: en:Chapter 09
00:43:19.388: en:Chapter 10
00:48:56.392: en:Chapter 11
00:51:31.505: en:Chapter 12
00:53:13.732: en:Chapter 13
00:55:21.068: en:Chapter 14
00:59:08.044: en:Chapter 15
01:01:57.380: en:Chapter 16
01:04:34.579: en:Chapter 17
01:06:47.295: en:Chapter 18
01:11:21.819: en:Chapter 19
01:15:51.213: en:Chapter 20
01:18:41.008: en:Chapter 21
01:28:26.217: en:Chapter 22
01:35:08.286: en:Chapter 23


Последний раз редактировалось: rastor (2021-05-07 23:06), всего редактировалось 1 раз
Профиль  ЛС 
Alex4951

Стаж: 11 лет
Сообщений: 118
Откуда: Уфа

Создавать темы Alex4951 написал(а)
12-Мар-2021 12:30 (спустя 4 дня)
неплохой , добрый мульт с хорошей моралью.
Профиль  ЛС 
медведьтт

Стаж: 7 лет 2 месяца
Сообщений: 285

Создавать темы медведьтт написал(а)
08-Май-2021 13:53 (спустя 1 месяц 27 дней)
Отличный мульт!
И мне и детям очень понравилось.
9.5 из 10.
Профиль  ЛС 
Показать сообщения:     

Вы не можете начинать темы
Вы не можете отвечать на сообщения
Вы не можете редактировать свои сообщения
Вы не можете удалять свои сообщения
Вы не можете голосовать в опросах
Вы не можете прикреплять файлы к сообщениям
Вы не можете скачивать файлы

Текущее время: 25-Июн 12:57
Часовой пояс: UTC + 5