Рик и Морти / Rick and Morty / Сезон: 4 / Серии: 6 из 10 (Пит Мишелс, Брайан Ньютон, Джон Райс) [2019, комедия, приключения, фантастика, adult swim WEB-DL 1080p] Сыендук

Автор Сообщение
fikus ®

Стаж: 11 лет
Сообщений: 414
Откуда: Уфа

Создавать темы fikus ® написал(а)
20-Ноя-2019 20:05
Рик и Морти / Rick and Morty
Страна: США
Жанр: комедия, приключения, фантастика, adult swim
Продолжительность серии: 00:22:00
Год выпуска: 2019
Перевод: Профессиональный (одноголосый, закадровый) Сыендук
Субтитры: Russian (Кинопоиск), English (SDH)
Режиссёр: Пит Мишелс, Брайан Ньютон, Джон Райс
Описание: В центре сюжета — школьник по имени Морти и его дедушка Рик. Морти — самый обычный мальчик, который ничем не отличается от своих сверстников. А вот его дедуля занимается необычными научными исследованиями и зачастую полностью неадекватен. Он может в любое время дня и ночи схватить внука и отправиться вместе с ним в межпространственные приключения с помощью построенной из разного хлама летающей тарелки, которая способна перемещаться сквозь временной тоннель. Каждый раз эта парочка оказывается в самых неожиданных местах и самых нелепых ситуациях.
Качество: WEB-DL 1080p
Формат: MKV
Видео кодек: H264
Аудио кодек: AC3
Видео: 1920x1080 23.976 fps 2700 kbps
Аудио: 48KHz 2 ch 192 kbps

MediaInfo

General
Unique ID : 9521196303150788637243464418296816551 (0x729B7388D45E4554FF75947EE5B63A7)
Complete name : D:\Rick and Morty - Season 4 (WEB-DL 1080p)\Rick.and.Morty.S04E01.Edge.of.Tomorty.Rick.Die.Rickpeat.1080p.AMZN.WEB-DL.5.1.RUS.ENG.mkv
Format : Matroska
Format version : Version 4 / Version 2
File size : 676 MiB
Duration : 22mn 31s
Overall bit rate : 4 197 Kbps
Encoded date : UTC 2019-11-20 16:43:45
Writing application : mkvmerge v40.0.0 ('Old Town Road + Pony') 64-bit
Writing library : libebml v1.3.9 + libmatroska v1.5.2
DURATION : 00:22:28.658000000
NUMBER_OF_FRAMES : 574
NUMBER_OF_BYTES : 18693
_STATISTICS_WRITING_APP : mkvmerge v40.0.0 ('Old Town Road + Pony') 64-bit
_STATISTICS_WRITING_DATE_UTC : 2019-11-20 16:43:45
_STATISTICS_TAGS : BPS DURATION NUMBER_OF_FRAMES NUMBER_OF_BYTES
Video
ID : 1
Format : AVC
Format/Info : Advanced Video Codec
Format profile : High@L4
Format settings, CABAC : Yes
Format settings, ReFrames : 4 frames
Codec ID : V_MPEG4/ISO/AVC
Duration : 22mn 31s
Bit rate : 2 642 Kbps
Width : 1 920 pixels
Height : 1 080 pixels
Display aspect ratio : 16:9
Frame rate mode : Constant
Frame rate : 23.976 fps
Color space : YUV
Chroma subsampling : 4:2:0
Bit depth : 8 bits
Scan type : Progressive
Bits/(Pixel*Frame) : 0.053
Stream size : 426 MiB (63%)
Default : Yes
Forced : No
Color range : Limited
Color primaries : BT.709
Transfer characteristics : BT.709
Matrix coefficients : BT.709
Audio #1
ID : 2
Format : AC-3
Format/Info : Audio Coding 3
Mode extension : CM (complete main)
Format settings, Endianness : Big
Codec ID : A_AC3
Duration : 22mn 31s
Bit rate mode : Constant
Bit rate : 640 Kbps
Channel(s) : 6 channels
Channel positions : Front: L C R, Side: L R, LFE
Sampling rate : 48.0 KHz
Bit depth : 16 bits
Compression mode : Lossy
Stream size : 103 MiB (15%)
Language : Russian
Default : No
Forced : No
Audio #2
ID : 3
Format : AC-3
Format/Info : Audio Coding 3
Mode extension : CM (complete main)
Format settings, Endianness : Big
Codec ID : A_AC3
Duration : 22mn 31s
Bit rate mode : Constant
Bit rate : 192 Kbps
Channel(s) : 2 channels
Channel positions : Front: L R
Sampling rate : 48.0 KHz
Bit depth : 16 bits
Compression mode : Lossy
Stream size : 30.9 MiB (5%)
Language : Russian
Default : No
Forced : No
Audio #3
ID : 4
Format : E-AC-3
Format/Info : Audio Coding 3
Format settings, Endianness : Big
Codec ID : A_EAC3
Duration : 22mn 31s
Bit rate mode : Constant
Bit rate : 640 Kbps
Channel(s) : 6 channels
Channel positions : Front: L C R, Side: L R, LFE
Sampling rate : 48.0 KHz
Compression mode : Lossy
Stream size : 103 MiB (15%)
Language : English
Default : No
Forced : No
Text #1
ID : 5
Format : UTF-8
Codec ID : S_TEXT/UTF8
Codec ID/Info : UTF-8 Plain Text
Title : Кинопоиск
Language : Russian
Default : No
Forced : No
Text #2
ID : 6
Format : UTF-8
Codec ID : S_TEXT/UTF8
Codec ID/Info : UTF-8 Plain Text
Title : SDH
Language : English
Default : No
Forced : No
Профиль  ЛС 
neil

Стаж: 11 лет
Сообщений: 144

Создавать темы neil написал(а)
11-Май-2020 11:59 (спустя 5 месяцев 20 дней)
что то последняя серия разочаровала
кто нибудь в курсе когда и с чьим переводом солнечные противоположности выйдут?
Профиль  ЛС 
Показать сообщения:     

Вы не можете начинать темы
Вы не можете отвечать на сообщения
Вы не можете редактировать свои сообщения
Вы не можете удалять свои сообщения
Вы не можете голосовать в опросах
Вы не можете прикреплять файлы к сообщениям
Вы не можете скачивать файлы

Текущее время: 21-Сен 07:03
Часовой пояс: UTC + 5