Король / The King (Дэвид Мишо) [2019 г., Драма, мелодрама, военный, биография, история, WEB-DL 1080p] Лицензия

Автор Сообщение
rastor ®

Стаж: 11 лет
Сообщений: 4234

Создавать темы rastor ® написал(а)
01-Ноя-2019 16:11
КорольThe King Год выпуска: 2019
Страна: Великобритания, Венгрия, Австралия
Жанр: Драма, мелодрама, военный, биография, история
Продолжительность: 02:20:30
Перевод: Профессиональный (полное дублирование)
Субтитры: Русские, английские-Режиссер: Дэвид Мишо-В ролях: Тимоти Шаламе, Джоэл Эдгертон, Роберт Паттинсон, Бен Мендельсон, Шон Харрис, Лили-Роуз Депп, Том Глинн-Карни, Томасин МакКензи, Дин-Чарльз Чепмен, Тара Фитцджеральд-Описание: История молодого английского короля Генриха V. Взойдя на престол в мрачные времена Столетней войны, он становится одним из величайших полководцев своей эпохи.-Качество: WEB-DL 1080p
Формат: MKV
Видео кодек: H.264
Аудио кодек: AC3
Видео: 1920x1080 24fps 5519kbps
Аудио:
Аудио Rus: 48kHz 6ch 640Kbps
Аудио Eng: 48kHz 6ch 768Kbps

MediaInfo

Формат : Matroska
Версия формата : Version 4
Размер файла : 6,80 Гбайт
Продолжительность : 2 ч. 20 м.
Режим общего битрейта : Переменный
Общий поток : 6929 Кбит/сек
Название фильма : Король (2019)
Дата кодирования : UTC 2019-11-01 08:17:19
Программа кодирования : mkvmerge v37.0.0 ('Leave It') 64-bit
Библиотека кодирования : libebml v1.3.9 + libmatroska v1.5.2
Обложка : Yes
Attachments : cover.jpg
Видео
Идентификатор : 1
Формат : AVC
Формат/Информация : Advanced Video Codec
Профиль формата : Main@L4
Настройки формата : CABAC / 3 Ref Frames
Параметр CABAC формата : Да
Параметр RefFrames формата : 3 кадра
Идентификатор кодека : V_MPEG4/ISO/AVC
Продолжительность : 2 ч. 20 м.
Вид битрейта : Переменный
Битрейт : 5519 Кбит/сек
Номинальный битрейт : 5800 Кбит/сек
Максимальный битрейт : 8700 Кбит/сек
Ширина : 1920 пикселей
Высота : 1080 пикселей
Соотношение сторон : 16:9
Режим частоты кадров : Постоянный
Частота кадров : 24,000 кадра/сек
Цветовое пространство : YUV
Субдискретизация насыщенности : 4:2:0
Битовая глубина : 8 бит
Тип развёртки : Прогрессивная
Бит/(Пиксели*Кадры) : 0.111
Размер потока : 5,42 Гбайт (80%)
Заголовок : The.King.2019.1080p.WEB-DL.DUB.EniaHD
Библиотека кодирования : x264 core 148 r2715 7e75228
Настройки программы : cabac=1 / ref=3 / deblock=1:0:0 / analyse=0x1:0x111 / me=umh / subme=10 / psy=1 / psy_rd=1.00:0.00 / mixed_ref=1 / me_range=24 / chroma_me=1 / trellis=2 / 8x8dct=0 / cqm=0 / deadzone=21,11 / fast_pskip=1 / chroma_qp_offset=-2 / threads=8 / lookahead_threads=1 / sliced_threads=0 / nr=0 / decimate=1 / interlaced=0 / bluray_compat=0 / stitchable=1 / constrained_intra=0 / bframes=2 / b_pyramid=0 / b_adapt=2 / b_bias=0 / direct=3 / weightb=1 / open_gop=0 / weightp=2 / keyint=250 / keyint_min=24 / scenecut=0 / intra_refresh=0 / rc_lookahead=48 / rc=2pass / mbtree=1 / bitrate=5800 / ratetol=1.0 / qcomp=0.50 / qpmin=6 / qpmax=51 / qpstep=4 / cplxblur=20.0 / qblur=0.5 / vbv_maxrate=8700 / vbv_bufsize=11600 / nal_hrd=vbr / filler=0 / ip_ratio=1.40 / aq=1:1.00
Язык : English
Default : Да
Forced : Нет
Аудио #1
Идентификатор : 2
Формат : E-AC-3
Формат/Информация : Enhanced AC-3
Коммерческое название : Dolby Digital Plus
Идентификатор кодека : A_EAC3
Продолжительность : 2 ч. 20 м.
Вид битрейта : Постоянный
Битрейт : 640 Кбит/сек
Каналы : 6 каналов
ChannelLayout : L R C LFE Ls Rs
Частота : 48,0 КГц
Частота кадров : 31,250 кадров/сек (1536 SPF)
Метод сжатия : С потерями
Размер потока : 643 Мбайт (9%)
Заголовок : E-AC3 5.1 @ 640 kbps - DUB, Пифагор
Язык : Russian
ServiceKind : Complete Main
Default : Да
Forced : Нет
Аудио #2
Идентификатор : 3
Формат : E-AC-3 JOC
Формат/Информация : Enhanced AC-3 with Joint Object Coding
Коммерческое название : Dolby Digital Plus with Dolby Atmos
Идентификатор кодека : A_EAC3
Продолжительность : 2 ч. 20 м.
Вид битрейта : Постоянный
Битрейт : 768 Кбит/сек
Каналы : 6 каналов
ChannelLayout : L R C LFE Ls Rs
Частота : 48,0 КГц
Частота кадров : 31,250 кадров/сек (1536 SPF)
Метод сжатия : С потерями
Размер потока : 772 Мбайт (11%)
Заголовок : E-AC3 + Atmos 5.1 @ 768 kbps - Original
Язык : English
ServiceKind : Complete Main
Default : Нет
Forced : Нет
ComplexityIndex : 16
NumberOfDynamicObjects : 15
BedChannelCount : 1 канал
BedChannelConfiguration : LFE
Текст #1
Идентификатор : 4
Формат : UTF-8
Идентификатор кодека : S_TEXT/UTF8
Идентификатор кодека/Информация : UTF-8 Plain Text
Продолжительность : 2 ч. 19 м.
Битрейт : 1 бит/сек
ElementCount : 33
Размер потока : 1,62 Кбайт (0%)
Заголовок : Forced
Язык : Russian
Default : Да
Forced : Да
Текст #2
Идентификатор : 5
Формат : UTF-8
Идентификатор кодека : S_TEXT/UTF8
Идентификатор кодека/Информация : UTF-8 Plain Text
Продолжительность : 2 ч. 19 м.
Битрейт : 59 бит/сек
ElementCount : 1193
Размер потока : 60,9 Кбайт (0%)
Заголовок : Full
Язык : Russian
Default : Нет
Forced : Нет
Текст #3
Идентификатор : 6
Формат : UTF-8
Идентификатор кодека : S_TEXT/UTF8
Идентификатор кодека/Информация : UTF-8 Plain Text
Продолжительность : 1 ч. 11 м.
Битрейт : 1 бит/сек
ElementCount : 35
Размер потока : 959 байт (0%)
Заголовок : Forced
Язык : English
Default : Нет
Forced : Нет
Текст #4
Идентификатор : 7
Формат : UTF-8
Идентификатор кодека : S_TEXT/UTF8
Идентификатор кодека/Информация : UTF-8 Plain Text
Продолжительность : 2 ч. 9 м.
Битрейт : 41 бит/сек
ElementCount : 1361
Размер потока : 39,7 Кбайт (0%)
Заголовок : Full
Язык : English
Default : Нет
Forced : Нет
Текст #5
Идентификатор : 8
Формат : UTF-8
Идентификатор кодека : S_TEXT/UTF8
Идентификатор кодека/Информация : UTF-8 Plain Text
Продолжительность : 2 ч. 10 м.
Битрейт : 50 бит/сек
ElementCount : 1814
Размер потока : 48,2 Кбайт (0%)
Заголовок : Full, SDH
Язык : English
Default : Нет
Forced : Нет
Профиль  ЛС 
Русланко1992

Стаж: 10 лет
Сообщений: 12
Откуда: Russia

Создавать темы Русланко1992 написал(а)
07-Ноя-2019 12:30 (спустя 5 дней)
Интересный фильм, стоит посмотреть.
Профиль  ЛС 
Показать сообщения:     

Вы не можете начинать темы
Вы не можете отвечать на сообщения
Вы не можете редактировать свои сообщения
Вы не можете удалять свои сообщения
Вы не можете голосовать в опросах
Вы не можете прикреплять файлы к сообщениям
Вы не можете скачивать файлы

Текущее время: 21-Ноя 21:00
Часовой пояс: UTC + 5