Испытание огнем / Trial by Fire (Эдвард Цвик) [2018 г., Драма, биография, криминал, WEB-DL 1080p] Лицензия

Автор Сообщение
rastor ®

Стаж: 11 лет
Сообщений: 4391

Создавать темы rastor ® написал(а)
09-Окт-2019 16:01
Испытание огнемTrial by Fire Год выпуска: 2018
Страна: США
Жанр: Драма, биография, криминал
Продолжительность: 02:07:05
Перевод:
*Профессиональный (полное дублирование)
*Профессиональный (многоголосый) HDRezka Studio
Субтитры: Русские (Forced, full), английские-Режиссер: Эдвард Цвик-В ролях: Джэйд Петтиджон, Лора Дерн, Джек О`Коннелл, Эмили Мид, Джефф Перри, Рода Гриффис, Эль Грэм, Крис Кой, Джейсон Дуглас, Даррен Петти, Тинсли Прайс, Карлос Гомес, Эннистон Прайс-Описание: Фильм, основанный на реальных событиях, об истории Кэмерона Тодда Уиллингема — бедного бунтаря с криминальным прошлым из небольшого города в Техасе, которого обвинили в убийстве трех его дочерей и приговорили к смертной казни. Когда весь мир отвернулся от мужчины, на его защиту встала Элизабет Гилберт — мать двоих детей из Хьюстона, отказавшаяся признавать обвинительный приговор. В течение 12 лет она поддерживала Кэмерона, находящегося в камере смертников, изучая всю доказательную базу по его делу...--Качество: WEB-DL 1080p
Формат: MKV
Видео кодек: H.264
Аудио кодек: AC3
Видео: 1920x1040 23.98fps 9262kbps
Аудио:
Аудио Дубляж: 48kHz 6ch 384kbps
Аудио MVO: 48kHz 2ch 192kbps
Аудио Eng: 48kHz 6ch 640kbps

MediaInfo

Format : Matroska
Format version : Version 4
File size : 9.30 GiB
Duration : 2 h 7 min
Overall bit rate : 10.5 Mb/s
Movie name : Trial by Fire 2018 from селезень
Encoded date : UTC 2019-10-09 05:10:25
Writing application : mkvmerge v37.0.0 ('Leave It') 64-bit
Writing library : libebml v1.3.9 + libmatroska v1.5.2
Video
ID : 1
Format : AVC
Format/Info : Advanced Video Codec
Format profile : High@L4
Format settings : CABAC / 4 Ref Frames
Format settings, CABAC : Yes
Format settings, Reference : 4 frames
Codec ID : V_MPEG4/ISO/AVC
Duration : 2 h 7 min
Bit rate mode : Constant
Bit rate : 9 262 kb/s
Nominal bit rate : 10 000 kb/s
Width : 1 920 pixels
Height : 1 040 pixels
Display aspect ratio : 1.85:1
Frame rate mode : Constant
Frame rate : 23.976 (24000/1001) FPS
Color space : YUV
Chroma subsampling : 4:2:0
Bit depth : 8 bits
Scan type : Progressive
Bits/(Pixel*Frame) : 0.193
Stream size : 8.22 GiB (88%)
Language : English
Default : Yes
Forced : No
Color range : Limited
Color primaries : BT.709
Transfer characteristics : BT.709
Matrix coefficients : BT.709
Audio #1
ID : 2
Format : AC-3
Format/Info : Audio Coding 3
Commercial name : Dolby Digital
Codec ID : A_AC3
Duration : 2 h 7 min
Bit rate mode : Constant
Bit rate : 384 kb/s
Channel(s) : 6 channels
Channel layout : L R C LFE Ls Rs
Sampling rate : 48.0 kHz
Frame rate : 31.250 FPS (1536 SPF)
Bit depth : 16 bits
Compression mode : Lossy
Stream size : 349 MiB (4%)
Title : Dub [iTunes]
Language : Russian
Service kind : Complete Main
Default : Yes
Forced : Yes
Audio #2
ID : 3
Format : AC-3
Format/Info : Audio Coding 3
Commercial name : Dolby Digital
Codec ID : A_AC3
Duration : 2 h 7 min
Bit rate mode : Constant
Bit rate : 192 kb/s
Channel(s) : 2 channels
Channel layout : L R
Sampling rate : 48.0 kHz
Frame rate : 31.250 FPS (1536 SPF)
Bit depth : 16 bits
Compression mode : Lossy
Stream size : 175 MiB (2%)
Title : MVO [HDRezka Studio]
Language : Russian
Service kind : Complete Main
Default : No
Forced : No
Audio #3
ID : 4
Format : E-AC-3
Format/Info : Enhanced AC-3
Commercial name : Dolby Digital Plus
Codec ID : A_EAC3
Duration : 2 h 7 min
Bit rate mode : Constant
Bit rate : 640 kb/s
Channel(s) : 6 channels
Channel layout : L R C LFE Ls Rs
Sampling rate : 48.0 kHz
Frame rate : 31.250 FPS (1536 SPF)
Compression mode : Lossy
Stream size : 582 MiB (6%)
Title : Original
Language : English
Service kind : Complete Main
Default : No
Forced : No
Text #1
ID : 5
Format : UTF-8
Codec ID : S_TEXT/UTF8
Codec ID/Info : UTF-8 Plain Text
Duration : 2 h 6 min
Bit rate : 2 b/s
Count of elements : 41
Stream size : 2.02 KiB (0%)
Title : Forced
Language : Russian
Default : Yes
Forced : Yes
Text #2
ID : 6
Format : UTF-8
Codec ID : S_TEXT/UTF8
Codec ID/Info : UTF-8 Plain Text
Duration : 2 h 6 min
Bit rate : 106 b/s
Count of elements : 1772
Stream size : 98.4 KiB (0%)
Title : Full
Language : Russian
Default : No
Forced : No
Text #3
ID : 7
Format : UTF-8
Codec ID : S_TEXT/UTF8
Codec ID/Info : UTF-8 Plain Text
Duration : 2 h 3 min
Bit rate : 71 b/s
Count of elements : 2000
Stream size : 64.2 KiB (0%)
Title : Full
Language : English
Default : No
Forced : No
Text #4
ID : 8
Format : UTF-8
Codec ID : S_TEXT/UTF8
Codec ID/Info : UTF-8 Plain Text
Duration : 2 h 3 min
Bit rate : 74 b/s
Count of elements : 2080
Stream size : 67.7 KiB (0%)
Title : SDH
Language : English
Default : No
Forced : No
Menu
00:00:00.000 : en:1
00:10:09.441 : en:2
00:14:26.196 : en:3
00:24:44.105 : en:4
00:29:02.028 : en:5
00:34:03.329 : en:6
00:42:22.368 : en:7
00:48:29.109 : en:8
00:54:21.377 : en:9
01:01:46.404 : en:10
01:09:03.214 : en:11
01:16:33.747 : en:12
01:24:06.865 : en:13
01:32:46.259 : en:14
01:40:51.702 : en:15
01:47:33.061 : en:16
01:54:05.161 : en:17
02:00:09.483 : en:18
02:03:11.705 : en:19
Профиль  ЛС 
Трумэн

Стаж: 9 лет
Сообщений: 547
Откуда: Russia

Создавать темы Трумэн написал(а)
09-Окт-2019 21:23 (спустя 5 часов)
Спасибо) Крутой фильм
Профиль  ЛС 
Показать сообщения:     

Вы не можете начинать темы
Вы не можете отвечать на сообщения
Вы не можете редактировать свои сообщения
Вы не можете удалять свои сообщения
Вы не можете голосовать в опросах
Вы не можете прикреплять файлы к сообщениям
Вы не можете скачивать файлы

Текущее время: 22-Окт 07:06
Часовой пояс: UTC + 5