Формула 1 / Сезон 2019 / Этап 16 / Гран-При России / Квалификация, Гонка 28-29.09.2019 / Feed [2019 г., гонки, спорт, HDTVRip 720p] RU/UA/EN/INT

Автор Сообщение
Hobbit ®

Стаж: 10 лет
Сообщений: 670
Откуда: г. Уфа

Создавать темы Hobbit ® написал(а)
29-Сен-2019 20:43
-Формула 1 / Сезон 2019 / Этап 16
Гран-при России / Квалификация, Гонка
-Вид спорта: Формула 1
Официальный сайт соревнования: http://www.formula1.com/
Год выпуска: 2019
Продолжительность: Квалификация - 01:45:08 / Гонка - 03:04:14
Язык комментариев: Русский (Матч ТВ: Алексей Попов, Наталья Фабричнова), Украинский (Максим Подзигун), Английский (SkySports F1HD, Channel 4).-Описание:-Этап Formula 1 (F1) состоит из 3-х свободных практик, квалификации (3 сегмента) и гонки.
Места пилотов на стартовой решётке (старт с места) определяются по итогам квалификации.
Зачётные очки начисляются первым 10 пилотам по системе "25–18–15–12–10–8–6–4–2–1" +1 очко за лучший круг.
Гран-при России / Арена: Сочи Автодром (Сочи, Россия) / Квалификация, Гонка 28-29.09.2019
Состав участников: Mercedes (Hamilton - Bottas), Ferrari (Vettel - Leclerc), Red Bull Racing (Verstappen - Albon), Renault (Hulkenberg - Ricciardo), Haas F1 Team (Grosjean - Magnussen), McLaren (Sainz - Norris), Alfa Romeo Racing (Räikkönen - Giovinazzi), Toro Rosso (Kvyat - Gasly), Williams (Kubica - Russell), Racing Point (Perez - Stroll).-

Qualifying

Дата: 28.09.2019
Продолжительность: 01:45:08
Язык комментариев: Русский (Матч ТВ: Алексей Попов, Наталья Фабричнова), Украинский (Максим Подзигун), Английский (SkySports F1HD, Channel 4).
Квалификация. Live - трансляция.
Качество: HDTVRip
Исходник: HDTVRemux [TS/H.264/MP2(AC3), 1920х1080i (16:9), 25.000 fps]
Рип: деинтерлейсер [25i -> 50p]: QTGMC( Preset="Slow" )
Качество: HDTVRip
Формат: MKV
Видео: H.264; 1280x720p (16:9); 50.000 fps; 5875 kbps
Аудио 1 (RU): AC3; 48000 Hz; 2 ch; 192 kbps
Аудио 2 (UA): AC3; 48000 Hz; 2 ch; 192 kbps
Аудио 3 (EN): AC3; 48000 Hz; 6 ch; 384 kbps
Аудио 4 (EN): AC3; 48000 Hz; 6 ch; 384 kbps
Аудио 5 (INT): AC3; 48000 Hz; 6 ch; 448 kbps

MediaInfo

General
Unique ID : 210317997051748656884262619608788266432 (0x9E39C5D89DBF52939C0A4CCEF0306DC0)
Complete name : D:\Видео\Formula 1\F1.2019.16.Russia\F1.2019.16.Russia.Qualifying.HDTVRip-AVC.720p.50fps.mkv
Format : Matroska
Format version : Version 4
File size : 5.49 GiB
Duration : 1 h 45 min
Overall bit rate : 7 479 kb/s
Encoded date : UTC 2019-09-29 04:51:56
Writing application : mkvmerge v8.2.0 ('World of Adventure') 32bit
Writing library : libebml v1.3.1 + libmatroska v1.4.2
Video
ID : 1
Format : AVC
Format/Info : Advanced Video Codec
Format profile : High@L4.1
Format settings : CABAC / 4 Ref Frames
Format settings, CABAC : Yes
Format settings, Reference fra : 4 frames
Codec ID : V_MPEG4/ISO/AVC
Duration : 1 h 45 min
Bit rate : 5 875 kb/s
Width : 1 280 pixels
Height : 720 pixels
Display aspect ratio : 16:9
Frame rate mode : Constant
Frame rate : 50.000 FPS
Color space : YUV
Chroma subsampling : 4:2:0
Bit depth : 8 bits
Scan type : Progressive
Bits/(Pixel*Frame) : 0.127
Stream size : 4.31 GiB (79%)
Writing library : x264 core 148 r2705 3f5ed56
Encoding settings : cabac=1 / ref=3 / deblock=1:0:0 / analyse=0x3:0x113 / me=umh / subme=9 / psy=1 / psy_rd=1.00:0.00 / mixed_ref=1 / me_range=32 / chroma_me=1 / trellis=1 / 8x8dct=1 / cqm=0 / deadzone=21,11 / fast_pskip=1 / chroma_qp_offset=-2 / threads=18 / lookahead_threads=1 / sliced_threads=0 / nr=0 / decimate=1 / interlaced=0 / bluray_compat=0 / constrained_intra=0 / bframes=12 / b_pyramid=2 / b_adapt=1 / b_bias=0 / direct=1 / weightb=1 / open_gop=0 / weightp=2 / keyint=100 / keyint_min=10 / scenecut=40 / intra_refresh=0 / rc_lookahead=40 / rc=crf / mbtree=1 / crf=20.0 / qcomp=0.60 / qpmin=0 / qpmax=69 / qpstep=4 / vbv_maxrate=20000 / vbv_bufsize=25000 / crf_max=0.0 / nal_hrd=none / filler=0 / ip_ratio=1.40 / aq=1:1.00
Language : English
Default : Yes
Forced : No
Color range : Limited
Color primaries : BT.709
Transfer characteristics : BT.709
Matrix coefficients : BT.709
Audio #1
ID : 2
Format : AC-3
Format/Info : Audio Coding 3
Commercial name : Dolby Digital
Codec ID : A_AC3
Duration : 1 h 45 min
Bit rate mode : Constant
Bit rate : 192 kb/s
Channel(s) : 2 channels
Channel layout : L R
Sampling rate : 48.0 kHz
Frame rate : 31.250 FPS (1536 SPF)
Bit depth : 16 bits
Compression mode : Lossy
Delay relative to video : 160 ms
Stream size : 144 MiB (3%)
Title : Match TV
Language : Russian
Service kind : Complete Main
Default : Yes
Forced : No
Audio #2
ID : 3
Format : AC-3
Format/Info : Audio Coding 3
Commercial name : Dolby Digital
Codec ID : A_AC3
Duration : 1 h 45 min
Bit rate mode : Constant
Bit rate : 192 kb/s
Channel(s) : 2 channels
Channel layout : L R
Sampling rate : 48.0 kHz
Frame rate : 31.250 FPS (1536 SPF)
Bit depth : 16 bits
Compression mode : Lossy
Delay relative to video : 160 ms
Stream size : 144 MiB (3%)
Title : F1UA
Language : Ukrainian
Service kind : Complete Main
Default : No
Forced : No
Audio #3
ID : 4
Format : AC-3
Format/Info : Audio Coding 3
Commercial name : Dolby Digital
Codec ID : A_AC3
Duration : 1 h 45 min
Bit rate mode : Constant
Bit rate : 384 kb/s
Channel(s) : 6 channels
Channel layout : L R C LFE Ls Rs
Sampling rate : 48.0 kHz
Frame rate : 31.250 FPS (1536 SPF)
Bit depth : 16 bits
Compression mode : Lossy
Delay relative to video : 160 ms
Stream size : 289 MiB (5%)
Title : SkySports F1
Language : English
Service kind : Complete Main
Default : No
Forced : No
Audio #4
ID : 5
Format : AC-3
Format/Info : Audio Coding 3
Commercial name : Dolby Digital
Codec ID : A_AC3
Duration : 1 h 45 min
Bit rate mode : Constant
Bit rate : 384 kb/s
Channel(s) : 6 channels
Channel layout : L R C LFE Ls Rs
Sampling rate : 48.0 kHz
Frame rate : 31.250 FPS (1536 SPF)
Bit depth : 16 bits
Compression mode : Lossy
Delay relative to video : 160 ms
Stream size : 289 MiB (5%)
Title : Channel 4
Language : English
Service kind : Complete Main
Default : No
Forced : No
Audio #5
ID : 6
Format : AC-3
Format/Info : Audio Coding 3
Commercial name : Dolby Digital
Codec ID : A_AC3
Duration : 1 h 45 min
Bit rate mode : Constant
Bit rate : 448 kb/s
Channel(s) : 6 channels
Channel layout : L R C LFE Ls Rs
Sampling rate : 48.0 kHz
Frame rate : 31.250 FPS (1536 SPF)
Bit depth : 16 bits
Compression mode : Lossy
Delay relative to video : 160 ms
Stream size : 337 MiB (6%)
Title : Natural Sounds
Service kind : Complete Main
Default : No
Forced : No

Скриншоты:

Race

Дата: 29.09.2019
Продолжительность: 03:04:14
Язык комментариев: Русский (Матч ТВ: Алексей Попов, Наталья Фабричнова), Украинский (Максим Подзигун), Английский (SkySports F1HD, Channel 4).
Гонка. Live - трансляция.
Качество: HDTVRip
Исходник: HDTVRemux [TS/H.264/MP2(AC3), 1920х1080i (16:9), 25.000 fps]
Рип: деинтерлейсер [25i -> 50p]: QTGMC( Preset="Slow" )
Формат: MKV
Видео: H.264; 1280x720p (16:9); 50.000 fps; 6687 kbps
Аудио 1 (RU): AC3; 48000 Hz; 2 ch; 192 kbps
Аудио 2 (UA): AC3; 48000 Hz; 2 ch; 192 kbps
Аудио 3 (EN): AC3; 48000 Hz; 6 ch; 384 kbps
Аудио 4 (EN): AC3; 48000 Hz; 6 ch; 384 kbps
Аудио 5 (INT): AC3; 48000 Hz; 6 ch; 448 kbps

MediaInfo

General
Unique ID : 244257775092078570178772736406133019357 (0xB7C25619100137AB862209E3125A12DD)
Complete name : D:\Видео\Formula 1\F1.2019.16.Russia\F1.2019.16.Russia.Race.HDTVRip-AVC.720p.50fps.mkv
Format : Matroska
Format version : Version 4
File size : 10.7 GiB
Duration : 3 h 4 min
Overall bit rate : 8 291 kb/s
Encoded date : UTC 2019-09-30 04:02:02
Writing application : mkvmerge v8.2.0 ('World of Adventure') 32bit
Writing library : libebml v1.3.1 + libmatroska v1.4.2
Video
ID : 1
Format : AVC
Format/Info : Advanced Video Codec
Format profile : High@L4.1
Format settings : CABAC / 4 Ref Frames
Format settings, CABAC : Yes
Format settings, Reference fra : 4 frames
Codec ID : V_MPEG4/ISO/AVC
Duration : 3 h 4 min
Bit rate : 6 687 kb/s
Width : 1 280 pixels
Height : 720 pixels
Display aspect ratio : 16:9
Frame rate mode : Constant
Frame rate : 50.000 FPS
Color space : YUV
Chroma subsampling : 4:2:0
Bit depth : 8 bits
Scan type : Progressive
Bits/(Pixel*Frame) : 0.145
Stream size : 8.61 GiB (81%)
Writing library : x264 core 148 r2705 3f5ed56
Encoding settings : cabac=1 / ref=3 / deblock=1:0:0 / analyse=0x3:0x113 / me=umh / subme=9 / psy=1 / psy_rd=1.00:0.00 / mixed_ref=1 / me_range=32 / chroma_me=1 / trellis=1 / 8x8dct=1 / cqm=0 / deadzone=21,11 / fast_pskip=1 / chroma_qp_offset=-2 / threads=18 / lookahead_threads=1 / sliced_threads=0 / nr=0 / decimate=1 / interlaced=0 / bluray_compat=0 / constrained_intra=0 / bframes=12 / b_pyramid=2 / b_adapt=1 / b_bias=0 / direct=1 / weightb=1 / open_gop=0 / weightp=2 / keyint=100 / keyint_min=10 / scenecut=40 / intra_refresh=0 / rc_lookahead=40 / rc=crf / mbtree=1 / crf=20.0 / qcomp=0.60 / qpmin=0 / qpmax=69 / qpstep=4 / vbv_maxrate=20000 / vbv_bufsize=25000 / crf_max=0.0 / nal_hrd=none / filler=0 / ip_ratio=1.40 / aq=1:1.00
Language : English
Default : Yes
Forced : No
Color range : Limited
Color primaries : BT.709
Transfer characteristics : BT.709
Matrix coefficients : BT.709
Audio #1
ID : 2
Format : AC-3
Format/Info : Audio Coding 3
Commercial name : Dolby Digital
Codec ID : A_AC3
Duration : 3 h 4 min
Bit rate mode : Constant
Bit rate : 192 kb/s
Channel(s) : 2 channels
Channel layout : L R
Sampling rate : 48.0 kHz
Frame rate : 31.250 FPS (1536 SPF)
Bit depth : 16 bits
Compression mode : Lossy
Delay relative to video : 170 ms
Stream size : 253 MiB (2%)
Title : Match TV
Language : Russian
Service kind : Complete Main
Default : Yes
Forced : No
Audio #2
ID : 3
Format : AC-3
Format/Info : Audio Coding 3
Commercial name : Dolby Digital
Codec ID : A_AC3
Duration : 3 h 4 min
Bit rate mode : Constant
Bit rate : 192 kb/s
Channel(s) : 2 channels
Channel layout : L R
Sampling rate : 48.0 kHz
Frame rate : 31.250 FPS (1536 SPF)
Bit depth : 16 bits
Compression mode : Lossy
Delay relative to video : 170 ms
Stream size : 253 MiB (2%)
Title : F1UA
Language : Ukrainian
Service kind : Complete Main
Default : No
Forced : No
Audio #3
ID : 4
Format : AC-3
Format/Info : Audio Coding 3
Commercial name : Dolby Digital
Codec ID : A_AC3
Duration : 3 h 4 min
Bit rate mode : Constant
Bit rate : 384 kb/s
Channel(s) : 6 channels
Channel layout : L R C LFE Ls Rs
Sampling rate : 48.0 kHz
Frame rate : 31.250 FPS (1536 SPF)
Bit depth : 16 bits
Compression mode : Lossy
Delay relative to video : 170 ms
Stream size : 506 MiB (5%)
Title : SkySports F1
Language : English
Service kind : Complete Main
Default : No
Forced : No
Audio #4
ID : 5
Format : AC-3
Format/Info : Audio Coding 3
Commercial name : Dolby Digital
Codec ID : A_AC3
Duration : 3 h 4 min
Bit rate mode : Constant
Bit rate : 384 kb/s
Channel(s) : 6 channels
Channel layout : L R C LFE Ls Rs
Sampling rate : 48.0 kHz
Frame rate : 31.250 FPS (1536 SPF)
Bit depth : 16 bits
Compression mode : Lossy
Delay relative to video : 170 ms
Stream size : 506 MiB (5%)
Title : Channel 4
Language : English
Service kind : Complete Main
Default : No
Forced : No
Audio #5
ID : 6
Format : AC-3
Format/Info : Audio Coding 3
Commercial name : Dolby Digital
Codec ID : A_AC3
Duration : 3 h 4 min
Bit rate mode : Constant
Bit rate : 448 kb/s
Channel(s) : 6 channels
Channel layout : L R C LFE Ls Rs
Sampling rate : 48.0 kHz
Frame rate : 31.250 FPS (1536 SPF)
Bit depth : 16 bits
Compression mode : Lossy
Delay relative to video : 170 ms
Stream size : 590 MiB (5%)
Title : Natural Sounds
Service kind : Complete Main
Default : No
Forced : No

Скриншоты:

-
Профиль  ЛС 
Показать сообщения:     

Вы не можете начинать темы
Вы не можете отвечать на сообщения
Вы не можете редактировать свои сообщения
Вы не можете удалять свои сообщения
Вы не можете голосовать в опросах
Вы не можете прикреплять файлы к сообщениям
Вы не можете скачивать файлы

Текущее время: 22-Окт 07:09
Часовой пояс: UTC + 5