Бык (Борис Акопов) [2019 г., Драма, WEB-DL 1080p] Лицензия

Автор Сообщение
rastor ®

Стаж: 11 лет
Сообщений: 4391

Создавать темы rastor ® написал(а)
19-Сен-2019 08:03
Бык Год выпуска: 2019
Страна: Россия
Жанр: Драма
Продолжительность: 01:39:27
Перевод: Не требуется-Режиссер: Борис Акопов-В ролях: Юрий Борисов, Стася Милославская, Афина Кондрашова, Егор Кенжаметов, Александр Самсонов, Игорь Савочкин, Алексей Филимонов, Сергей Двойников, Александр Левин, Роман Колотухин-Описание: 90-е годы. Экономическая пропасть и криминальные драмы, разворачивающиеся буквально на каждом углу. Молодой лидер преступной группировки Антон Быков по прозвищу «Бык» вынужден зарабатывать любыми способами, чтобы обеспечить свою семью. После районной «стрелки» Антон попадает в отделение милиции, откуда его вызволяет один из московских авторитетов. Взамен он просит героя о маленькой, но опасной услуге.--Качество: WEB-DL 1080p
Формат: MKV
Видео кодек: H.264
Аудио кодек: AC3
Видео: 1912x712 23.98fps 4554kbps
Аудио: 48kHz 6ch 384kbps

MediaInfo

Формат : Matroska
Версия формата : Version 4 / Version 2
Размер файла : 3,43 Гбайт
Продолжительность : 1 ч. 39 м.
Общий поток : 4940 Кбит/сек
Дата кодирования : UTC 2019-09-18 18:19:58
Программа кодирования : mkvmerge v9.5.0 ('Quiet Fire') 64bit
Библиотека кодирования : libebml v1.3.4 + libmatroska v1.4.5
Видео
Идентификатор : 1
Формат : AVC
Формат/Информация : Advanced Video Codec
Профиль формата : High@L4
Настройки формата : CABAC / 5 Ref Frames
Параметр CABAC формата : Да
Параметр RefFrames формата : 5 кадров
Идентификатор кодека : V_MPEG4/ISO/AVC
Продолжительность : 1 ч. 39 м.
Битрейт : 4554 Кбит/сек
Ширина : 1912 пикселей
Высота : 712 пикселей
Соотношение сторон : 2,685
Режим частоты кадров : Постоянный
Частота кадров : 23,976 кадра/сек
Цветовое пространство : YUV
Субдискретизация насыщенности : 4:2:0
Битовая глубина : 8 бит
Тип развёртки : Прогрессивная
Бит/(Пиксели*Кадры) : 0.140
Размер потока : 3,16 Гбайт (92%)
Язык : English
Default : Да
Forced : Нет
Цветовой диапазон : Limited
Основные цвета : BT.709
Характеристики трансфера : BT.709
Коэффициенты матрицы : BT.709
Аудио
Идентификатор : 2
Формат : AC-3
Формат/Информация : Audio Coding 3
Параметр Endianness формата : Big
Идентификатор кодека : A_AC3
Продолжительность : 1 ч. 39 м.
Вид битрейта : Постоянный
Битрейт : 384 Кбит/сек
Каналы : 6 каналов
Расположение каналов : Front: L C R, Side: L R, LFE
Частота : 48,0 КГц
Частота кадров : 31,250 кадров/сек (1536 SPF)
Битовая глубина : 16 бит
Метод сжатия : С потерями
Размер потока : 273 Мбайт (8%)
Язык : Russian
Default : Да
Forced : Нет
Меню
00:00:00.000 : en:1
00:09:33.000 : en:2
00:18:51.000 : en:3
00:29:59.000 : en:4
00:39:18.000 : en:5
00:50:24.000 : en:6
01:00:13.000 : en:7
01:10:30.000 : en:8
01:20:09.000 : en:9
01:29:58.000 : en:10
01:37:40.000 : en:11
Профиль  ЛС 
takser16

Стаж: 10 лет
Сообщений: 95
Откуда: из тех-же ворот, откуда и весь народ

Создавать темы takser16 написал(а)
19-Сен-2019 13:58 (спустя 5 часов)
хорошо он их в конце уработал
Профиль  ЛС 
xc1ter

Стаж: 10 лет
Сообщений: 12
Откуда: Russia

Создавать темы xc1ter написал(а)
19-Сен-2019 22:32 (спустя 8 часов)
отличный фильм!всем к просмотру!
Профиль  ЛС 
Показать сообщения:     

Вы не можете начинать темы
Вы не можете отвечать на сообщения
Вы не можете редактировать свои сообщения
Вы не можете удалять свои сообщения
Вы не можете голосовать в опросах
Вы не можете прикреплять файлы к сообщениям
Вы не можете скачивать файлы

Текущее время: 22-Окт 07:09
Часовой пояс: UTC + 5