Оно 2 / It Chapter Two (Андрес Мускетти) [2019, Канада, США, ужасы, WEBRip-AVC] Dub

Автор Сообщение
sergoufaVDV ®

Стаж: 3 года 10 месяцев
Сообщений: 378
Откуда: Нагаево

Создавать темы sergoufaVDV ® написал(а)
10-Сен-2019 16:29
Оно 2 / It Chapter Two
Страна: Канада, США
Жанр: ужасы
Год выпуска: 2019
Продолжительность: 02:45:09
Перевод: Профессиональный (многоголосый закадровый)HDRezka Studio
Cубтитры: Русские (форсированные, хардсаб), Корейские (хардсаб)
Режиссер: Андрес Мускетти
В ролях: Джессика Честейн, Джеймс МакЭвой, Билл Хейдер, Айзая Мустафа, Джей Райан, Джеймс Рэнсон, Энди Бин, Билл Скарсгард, Джейден Мартелл, Уайатт Олефф
Описание: Проходит 27 лет после первой встречи ребят с демоническим Пеннивайзом. Они уже выросли, и у каждого своя жизнь. Но неожиданно их спокойное существование нарушает странный телефонный звонок, который заставляет их вновь собраться вместе.

http://multi-up.com/1243878
Качество: WEBRip-AVC
Формат видео: MKV
General
Unique ID : 84135487279024248499266877566278009604 (0x3F4BE7CA7F8EBEDBBEEF60682B718304)
Complete name : C:\Users\123\Desktop\It.Chapter.Two.2019.WEBRip-AVC_[tfile.ru].mkv
Format : Matroska
Format version : Version 4 / Version 2
File size : 2.18 GiB
Duration : 2h 45mn
Overall bit rate mode : Constant
Overall bit rate : 1 892 Kbps
Encoded date : UTC 2019-10-15 04:37:44
Writing application : Lavf56.36.100
Writing library : Lavf56.36.100
Video
ID : 2
Format : AVC
Format/Info : Advanced Video Codec
Format profile : High@L4.1
Format settings, CABAC : Yes
Format settings, ReFrames : 2 frames
Format settings, GOP : M=1, N=25
Codec ID : V_MPEG4/ISO/AVC
Duration : 2h 45mn
Bit rate mode : Constant
Bit rate : 1 700 Kbps
Width : 1 024 pixels
Height : 432 pixels
Display aspect ratio : 2.40:1
Frame rate mode : Constant
Frame rate : 23.976 fps
Color space : YUV
Chroma subsampling : 4:2:0
Bit depth : 8 bits
Scan type : Progressive
Bits/(Pixel*Frame) : 0.160
Stream size : 1.92 GiB (88%)
Language : English
Default : Yes
Forced : No
DURATION : 02:45:09.483000000
NUMBER_OF_FRAMES : 237589
NUMBER_OF_BYTES : 2223138184
_STATISTICS_WRITING_APP : mkvmerge v7.4.0 (''Circles'') 64bit built on Dec 12 2014 12:19:56
_STATISTICS_WRITING_DATE_UTC : 2019-10-15 04:37:44
_STATISTICS_TAGS : BPS DURATION NUMBER_OF_FRAMES NUMBER_OF_BYTES
Audio
ID : 1
Format : AC-3
Format/Info : Audio Coding 3
Mode extension : CM (complete main)
Format settings, Endianness : Big
Codec ID : A_AC3
Duration : 2h 45mn
Bit rate mode : Constant
Bit rate : 192 Kbps
Channel(s) : 2 channels
Channel positions : Front: L R
Sampling rate : 48.0 KHz
Bit depth : 32 bits
Compression mode : Lossy
Stream size : 227 MiB (10%)
Default : Yes
Forced : No
Видео: 1024x432 (2.40:1), 23.976 fps, AVC MPEG4 (x264), High@L4.1, ~1700 kbps avg, 0.160 bit/pixel
Аудио: 48 kHz, AC3 Dolby Digital, 2 (L,R) ch, ~192.00 kbps avg
Скриншоты:





Последний раз редактировалось: sergoufaVDV (2019-10-16 16:07), всего редактировалось 5 раз(а)
Профиль  ЛС 
aaanana

Стаж: 1 год 11 месяцев
Сообщений: 34

Создавать темы aaanana написал(а)
10-Сен-2019 20:10 (спустя 3 часа)
звук ромашко
Профиль  ЛС 
mansaver

Стаж: 9 лет 5 месяцев
Сообщений: 20
Откуда: ??

Создавать темы mansaver написал(а)
10-Сен-2019 21:56 (спустя 1 час 45 минут)
звук терпимо. фильм на раз.
Профиль  ЛС 
Napoleon

Стаж: 10 лет
Сообщений: 181
Откуда: Ыренбуг

Создавать темы Napoleon написал(а)
02-Окт-2019 10:02 (спустя 21 день)
оно внатуре в ромашко,ждём русскую версию
Профиль  ЛС 
Napoleon

Стаж: 10 лет
Сообщений: 181
Откуда: Ыренбуг

Создавать темы Napoleon написал(а)
02-Окт-2019 10:03 (спустя 21 секунда)
ромашко
Профиль  ЛС 
Napoleon

Стаж: 10 лет
Сообщений: 181
Откуда: Ыренбуг

Создавать темы Napoleon написал(а)
02-Окт-2019 10:04 (спустя 1 минута)
азазаза ромашко
Профиль  ЛС 
Diablonix

Стаж: 11 лет
Сообщений: 498

Создавать темы Diablonix написал(а)
03-Окт-2019 13:43 (спустя 1 день 3 часа)
5301990азазаза ромашко
Не увлекайтесь
Профиль  ЛС 
S.T.A.L.K.E.R.

Стаж: 4 месяца 8 дней
Сообщений: 6

Создавать темы S.T.A.L.K.E.R. написал(а)
07-Окт-2019 13:01 (спустя 3 дня)
когда лицензия?
Профиль  ЛС 
LOWRIDER202

Стаж: 9 лет
Сообщений: 179
Откуда: MEXICO

Создавать темы LOWRIDER202 написал(а)
07-Окт-2019 20:07 (спустя 7 часов)
5302332когда лицензия?
Цифровой релиз (iTunes Blu-Ray) 23 Декабря 2019 года
Профиль  ЛС 
Panzerfaust

Стаж: 10 лет
Сообщений: 882
Откуда: ANTARCTICA

Создавать темы Panzerfaust написал(а)
07-Окт-2019 21:04 (спустя 57 минут)
Стивен Кинг не будет в говне сниматься, фильм классный!!!!!
Профиль  ЛС 
dopaminsoma

Стаж: 2 года 4 месяца
Сообщений: 3

Создавать темы dopaminsoma написал(а)
12-Окт-2019 17:44 (спустя 4 дня)
5302378Стивен Кинг не будет в говне сниматься, фильм классный!!!!!
именно поэтому он еще не в одном фильме не снялся ?
Профиль  ЛС 
sergoufaVDV ®

Стаж: 3 года 10 месяцев
Сообщений: 378
Откуда: Нагаево

Создавать темы sergoufaVDV ® написал(а)
16-Окт-2019 12:17 (спустя 3 дня)
обновил на WEBRip-AVC
Профиль  ЛС 
Показать сообщения:     

Вы не можете начинать темы
Вы не можете отвечать на сообщения
Вы не можете редактировать свои сообщения
Вы не можете удалять свои сообщения
Вы не можете голосовать в опросах
Вы не можете прикреплять файлы к сообщениям
Вы не можете скачивать файлы

Текущее время: 17-Ноя 05:43
Часовой пояс: UTC + 5