Побег с Фионой / Saving Flora (Марк Друри Тейлор) [2018 г., Драма, приключения, семейный, WEB-DL 1080p] Лицензия

Автор Сообщение
rastor ®

Стаж: 11 лет
Сообщений: 4267

Создавать темы rastor ® написал(а)
14-Авг-2019 14:34
Побег с ФионойSaving Flora Год выпуска: 2018
Страна: США
Жанр: Драма, приключения, семейный
Продолжительность: 01:35:24
Перевод: Профессиональный (полное дублирование)
Субтитры: Английские-Режиссер: Марк Друри Тейлор-В ролях: Дэвид Аркетт, Дженна Ортега, Леонор Варела, Терри Мур, Том Арнольд, Майкл Патрик МакГилл, Синди Чу, Масси Фурлан, Гален Ховард, Т.К. Уивер, Мартин Лион, Риа Пёрлмен, Гилфорд Адамс, Карлос Рагас, Марс Крейн-Описание: Когда-то большая слониха Фиона умело выполняла сложные трюки, приводя публику в неописуемый восторг. Но теперь, когда силы Фионы ослабли и она перестала удивлять зрителей, владелец цирка решил избавиться от животного. Его 14-летняя дочь Дон решила спасти своего друга и однажды ночью вывела Фиону из цирка на волю. Совершив побег, они отправляются в незабываемое путешествие. Впереди их ждут сотни километров пути по густым лесам, скалистым горам и неистовым рекам, где на каждом шагу их подстерегает опасность…-Качество: WEB-DL 1080p
Формат: MKV
Видео кодек: H.264
Аудио кодек: AC3
Видео: 1920x1080 23.98fps 8563kbps
Аудио:
Аудио Rus: 48kHz 6ch 384Kbps
Аудио Eng: 48kHz 2ch 192Kbps

MediaInfo

Format : Matroska
Format version : Version 2
File size : 6.21 GiB
Duration : 1 h 35 min
Overall bit rate : 9 324 kb/s
Encoded date : UTC 2019-08-14 07:57:46
Writing application : mkvmerge v5.8.0 ('No Sleep / Pillow') built on Sep 2 2012 15:37:04
Writing library : libebml v1.2.3 + libmatroska v1.3.0
Video
ID : 1
Format : AVC
Format/Info : Advanced Video Codec
Format profile : High@L4
Format settings, CABAC : Yes
Format settings, RefFrames : 4 frames
Codec ID : V_MPEG4/ISO/AVC
Duration : 1 h 35 min
Bit rate mode : Constant
Bit rate : 8 563 kb/s
Nominal bit rate : 10 000 kb/s
Width : 1 920 pixels
Height : 1 080 pixels
Display aspect ratio : 16:9
Frame rate mode : Constant
Frame rate : 23.976 (24000/1001) FPS
Color space : YUV
Chroma subsampling : 4:2:0
Bit depth : 8 bits
Scan type : Progressive
Bits/(Pixel*Frame) : 0.172
Stream size : 5.71 GiB (92%)
Language : English
Default : Yes
Forced : No
Color range : Limited
Color primaries : BT.709
Transfer characteristics : BT.709
Matrix coefficients : BT.709
Audio #1
ID : 2
Format : AC-3
Format/Info : Audio Coding 3
Format settings, Endianness : Big
Codec ID : A_AC3
Duration : 1 h 35 min
Bit rate mode : Constant
Bit rate : 384 kb/s
Channel(s) : 6 channels
Channel positions : Front: L C R, Side: L R, LFE
Sampling rate : 48.0 kHz
Frame rate : 31.250 FPS (1536 SPF)
Bit depth : 16 bits
Compression mode : Lossy
Stream size : 262 MiB (4%)
Title : iTunes
Language : Russian
Service kind : Complete Main
Default : Yes
Forced : No
Audio #2
ID : 3
Format : E-AC-3
Format/Info : Enhanced Audio Coding 3
Format settings, Endianness : Big
Codec ID : A_EAC3
Duration : 1 h 35 min
Bit rate mode : Constant
Bit rate : 192 kb/s
Channel(s) : 6 channels
Channel positions : Front: L C R, Side: L R, LFE
Sampling rate : 48.0 kHz
Frame rate : 187.500 FPS (256 SPF)
Compression mode : Lossy
Stream size : 131 MiB (2%)
Title : Original
Language : English
Service kind : Complete Main
Default : No
Forced : No
Text
ID : 4
Format : UTF-8
Codec ID : S_TEXT/UTF8
Codec ID/Info : UTF-8 Plain Text
Title : SDH
Language : English
Default : No
Forced : No
Menu
00:00:00.000 : en:Глава 1
00:08:22.002 : en:Глава 2
00:17:00.228 : en:Глава 3
00:25:10.468 : en:Глава 4
00:33:16.412 : en:Глава 5
00:41:19.686 : en:Глава 6
00:50:00.206 : en:Глава 7
00:59:18.097 : en:Глава 8
01:07:24.124 : en:Глава 9
01:15:49.003 : en:Глава 10
01:24:17.386 : en:Глава 11
Профиль  ЛС 
NurBert

Стаж: 8 лет 2 месяца
Сообщений: 2
Откуда: г.Октябрьский

Создавать темы NurBert написал(а)
17-Авг-2019 20:43 (спустя 3 дня)
На 3-ем скрине у парня недобрые намерения))
Профиль  ЛС 
PoloTenchik02

Стаж: 11 лет
Сообщений: 319

Создавать темы PoloTenchik02 написал(а)
18-Авг-2019 16:49 (спустя 20 часов)
Семейный добрый фильм, кавер или как там про белого льва, очень похожий сценарий
Профиль  ЛС 
Показать сообщения:     

Вы не можете начинать темы
Вы не можете отвечать на сообщения
Вы не можете редактировать свои сообщения
Вы не можете удалять свои сообщения
Вы не можете голосовать в опросах
Вы не можете прикреплять файлы к сообщениям
Вы не можете скачивать файлы

Текущее время: 15-Дек 04:12
Часовой пояс: UTC + 5