Королевский корги / The Queen's Corgi (Винсент Кестелут, Бен Стассен) [2019 г., Мультфильм, приключения, семейный, детский, полнометражный, BDRip 1080p] Лицензия

Автор Сообщение
rastor ®

Стаж: 10 лет
Сообщений: 4265

Создавать темы rastor ® написал(а)
07-Авг-2019 14:24
Королевский коргиThe Queen's Corgi Год выпуска: 2019
Страна: Бельгия
Жанр: Мультфильм, приключения, семейный, детский, полнометражный
Продолжительность: 01:25:17
Перевод: Профессиональный (полное дублирование)
Субтитры: Русские, английские-Режиссер: Винсент Кестелут, Бен Стассен-В ролях: Джек Уайтхолл, Джули Уолтерс, Том Кортни, Джон Калшоу, Ямал Фахим, Кулвиндер Гир, Сара Хэдлэнд, Тимоти Кристиан Джэнсен, Мэтт Лукас, Колин Макфарлэйн-Описание: Любимая порода собак у очень богатых и влиятельных людей — это корги. Маленькие собачки полностью погружены в жизнь своих больших хозяев. Спасаясь от политических интриг, любимец Британской Королевы вынужден покинуть Букингемский дворец. Теперь ему предстоит не только познакомиться с тайной жизнью улиц Лондона, но и доказать, что он настоящий Королевский Корги…--Качество: BDRip 1080p
Формат: MKV
Видео кодек: H.264
Аудио кодек: AC3
Видео: 1920x1080 24fps 12185kbps
Аудио:
Аудио Rus: 48kHz 6ch 384Kbps
Аудио Ukr: 48kHz 6ch 384Kbps
Аудио Eng: 48kHz 6ch 640Kbps

MediaInfo

Format : Matroska
Format version : Version 4
File size : 7.90 GiB
Duration : 1 h 25 min
Overall bit rate : 13.3 Mb/s
Movie name : Th .Queen's Corgi 2019 from селезень
Encoded date : UTC 2019-08-07 04:32:06
Writing application : mkvmerge v22.0.0 ('At The End Of The World') 64-bit
Writing library : libebml v1.3.5 + libmatroska v1.4.8
Video
ID : 1
Format : AVC
Format/Info : Advanced Video Codec
Format profile : High@L4.1
Format settings : CABAC / 4 Ref Frames
Format settings, CABAC : Yes
Format settings, Reference : 4 frames
Codec ID : V_MPEG4/ISO/AVC
Duration : 1 h 25 min
Bit rate : 11.9 Mb/s
Width : 1 920 pixels
Height : 1 080 pixels
Display aspect ratio : 16:9
Frame rate mode : Constant
Frame rate : 24.000 FPS
Color space : YUV
Chroma subsampling : 4:2:0
Bit depth : 8 bits
Scan type : Progressive
Bits/(Pixel*Frame) : 0.238
Stream size : 7.06 GiB (89%)
Title : iFT
Writing library : x264 core 155 r2867+74 66b5600 t_mod_Custom_2 [8-bit@all X86_64]
Encoding settings : cabac=1 / ref=4 / deblock=1:-3:-3 / analyse=0x3:0x113 / me=umh / subme=11 / psy=1 / fade_compensate=0.00 / psy_rd=1.00:0.00 / mixed_ref=1 / me_range=32 / chroma_me=1 / trellis=2 / 8x8dct=1 / cqm=0 / deadzone=21,11 / fast_pskip=0 / chroma_qp_offset=-2 / threads=18 / lookahead_threads=3 / sliced_threads=0 / nr=0 / decimate=0 / interlaced=0 / bluray_compat=0 / constrained_intra=0 / fgo=0 / bframes=8 / b_pyramid=2 / b_adapt=2 / b_bias=0 / direct=3 / weightb=1 / open_gop=0 / weightp=2 / keyint=250 / keyint_min=24 / scenecut=40 / intra_refresh=0 / rc_lookahead=60 / rc=crf / mbtree=0 / crf=15.0000 / qcomp=0.60 / qpmin=0:0:0 / qpmax=69:69:69 / qpstep=4 / vbv_maxrate=62500 / vbv_bufsize=78125 / crf_max=0.0 / nal_hrd=none / filler=0 / ip_ratio=1.30 / pb_ratio=1.20 / aq=3:0.80 / aq-sensitivity=10.00 / aq-factor=1.00:1.00:1.00 / aq2=0 / aq3=0
Language : English
Default : Yes
Forced : No
Color range : Limited
Color primaries : BT.709
Transfer characteristics : BT.709
Matrix coefficients : BT.709
Audio #1
ID : 2
Format : AC-3
Format/Info : Audio Coding 3
Commercial name : Dolby Digital
Codec ID : A_AC3
Duration : 1 h 25 min
Bit rate mode : Constant
Bit rate : 384 kb/s
Channel(s) : 6 channels
Channel layout : L R C LFE Ls Rs
Sampling rate : 48.0 kHz
Frame rate : 31.250 FPS (1536 SPF)
Bit depth : 16 bits
Compression mode : Lossy
Stream size : 234 MiB (3%)
Title : iTunes
Language : Russian
Service kind : Complete Main
Default : Yes
Forced : Yes
Audio #2
ID : 3
Format : AC-3
Format/Info : Audio Coding 3
Commercial name : Dolby Digital
Codec ID : A_AC3
Duration : 1 h 25 min
Bit rate mode : Constant
Bit rate : 384 kb/s
Channel(s) : 6 channels
Channel layout : L R C LFE Ls Rs
Sampling rate : 48.0 kHz
Frame rate : 31.250 FPS (1536 SPF)
Bit depth : 16 bits
Compression mode : Lossy
Stream size : 234 MiB (3%)
Title : iTunes
Language : Ukrainian
Service kind : Complete Main
Default : No
Forced : No
Audio #3
ID : 4
Format : AC-3
Format/Info : Audio Coding 3
Commercial name : Dolby Digital
Codec ID : A_AC3
Duration : 1 h 25 min
Bit rate mode : Constant
Bit rate : 640 kb/s
Channel(s) : 6 channels
Channel layout : L R C LFE Ls Rs
Sampling rate : 48.0 kHz
Frame rate : 31.250 FPS (1536 SPF)
Bit depth : 16 bits
Compression mode : Lossy
Stream size : 390 MiB (5%)
Title : Original
Language : English
Service kind : Complete Main
Default : No
Forced : No
Text #1
ID : 5
Format : UTF-8
Codec ID : S_TEXT/UTF8
Codec ID/Info : UTF-8 Plain Text
Duration : 1 h 20 min
Bit rate : 90 b/s
Count of elements : 953
Stream size : 53.4 KiB (0%)
Title : Full
Language : Russian
Default : No
Forced : No
Text #2
ID : 6
Format : UTF-8
Codec ID : S_TEXT/UTF8
Codec ID/Info : UTF-8 Plain Text
Duration : 1 h 18 min
Bit rate : 56 b/s
Count of elements : 999
Stream size : 32.6 KiB (0%)
Title : Full
Language : English
Default : No
Forced : No
Menu
00:00:00.000 : en:Chapter 01
00:07:42.333 : en:Chapter 02
00:14:50.708 : en:Chapter 03
00:22:13.375 : en:Chapter 04
00:29:44.458 : en:Chapter 05
00:35:05.458 : en:Chapter 06
00:40:40.000 : en:Chapter 07
00:48:05.000 : en:Chapter 08
00:55:05.667 : en:Chapter 09
01:03:00.542 : en:Chapter 10
01:10:06.083 : en:Chapter 11
01:16:11.792 : en:Chapter 12
Профиль  ЛС 
Показать сообщения:     

Вы не можете начинать темы
Вы не можете отвечать на сообщения
Вы не можете редактировать свои сообщения
Вы не можете удалять свои сообщения
Вы не можете голосовать в опросах
Вы не можете прикреплять файлы к сообщениям
Вы не можете скачивать файлы

Текущее время: 18-Авг 21:16
Часовой пояс: UTC + 5