Беловодье. Тайна затерянной страны / Сезон: 1 / Серии: 1-12 из 12 (Евгений Бедарев) [2019, мистика, приключения, фэнтези,WEB-DLRip-AVC]

Автор Сообщение
sergoufaVDV ®

Стаж: 3 года 7 месяцев
Сообщений: 283
Откуда: Нагаево

Создавать темы sergoufaVDV ® написал(а)
02-Июл-2019 20:32
Беловодье. Тайна затерянной страны
Год выпуска: 2019
Жанр: мистика, приключения, фэнтези
Продолжительность: 12 х ~ 00:48:00
Режиссёр: Евгений Бедарев
В ролях: Александр Петров (III), Светлана Суханова, Татьяна Орлова, Алексей Васильев (II), Алла Подчуфарова, Юлия Самойленко, Павел Крайнов, Роман Курцын, Марианна Шульц, Залим Мирзоев, Сергей Майоров (III), Любовь Виролайнен, Александр Пальчиков, Екатерина Ефимова, Руслан Спояло, Евгений Морозов, Данила Якушев, Рустам Махмутов, Дарья Макарова, Алёна Ковалёва, Михаил Хмуров, Николай Токарев, Дмитрий Бедарев, Максим Важов, Елена Аросьева

Описание: Герои самого зрелищного российского фэнтези-сериала «Пока цветет папоротник» возвращаются на экраны в новой полной приключений и волшебства истории «Беловодье. Тайна затерянной страны». Страшная тайна Хранителей открыта. Провал земли в заброшенном горном монастыре освободил силу, которая угрожает всей жизни на Земле. В параллельных мирах развернулась борьба за власть, каждый ведет свою смертельную игру, и понять, кто враг, а кто друг невозможно. Остается только один шанс на спасение. Но для последней Надежды нужна крепкая Вера и страстная Любовь.
Реклама: Нет
Качество: WEB-DLRip-AVC
Формат: MKV
Видео кодек: H.264
Аудио кодек: AC3
Видео: 720х400, (16:9), 25 fps, AVC MPEG-4 (x264), High@L4.1 ~ 1550 kbps , 0.217 bit/pixel
Аудио: 48 kHz, АС3, 2/0 (L,R), ~192.00 kbps avg

MI

Общее
Уникальный идентификатор : 235578860878476718210517876480238979338 (0xB13AD69718B2DBEC8291C82DFAF4890A)
Полное имя : D:Belovode. Tajna zaterjannoj strany.WEBRip.(AVC).GeneralFilm1.Belovode. Tajna zaterjannoj strany.WEBRip.(AVC).GeneralFilm.mkv
Формат : Matroska
Версия формата : Version 2
Размер файла : 600 Мбайт
Продолжительность : 47 м. 43 с.
Общий поток : 1759 Кбит/сек
Дата кодирования : UTC 2019-06-12 14:50:19
Программа кодирования : mkvmerge v7.8.0 ('River Man') 32bit built on Apr 3 2015 12:11:22
Библиотека кодирования : libebml v1.3.1 + libmatroska v1.4.2
Видео
Идентификатор : 1
Формат : AVC
Формат/Информация : Advanced Video Codec
Профиль формата : High@L4.1
Параметр CABAC формата : Да
Параметр ReFrames формата : 9 кадров
Идентификатор кодека : V_MPEG4/ISO/AVC
Продолжительность : 47 м. 43 с.
Битрейт : 1565 Кбит/сек
Ширина : 720 пикселей
Высота : 400 пикселей
Соотношение сторон : 16:9
Режим частоты кадров : Постоянный
Частота кадров : 25,000 кадров/сек
Цветовое пространство : YUV
Субдискретизация насыщенности : 4:2:0
Битовая глубина : 8 бит
Тип развёртки : Прогрессивная
Бит/(Пиксели*Кадры) : 0.217
Размер потока : 523 Мбайт (87%)
Библиотека кодирования : x264 core 146 r2538 121396c
Настройки программы : cabac=1 / ref=9 / deblock=1:-2:-1 / analyse=0x3:0x113 / me=umh / subme=9 / psy=1 / psy_rd=1.00:0.15 / mixed_ref=1 / me_range=32 / chroma_me=1 / trellis=2 / 8x8dct=1 / cqm=0 / deadzone=21,11 / fast_pskip=0 / chroma_qp_offset=-3 / threads=18 / lookahead_threads=3 / sliced_threads=0 / nr=0 / decimate=1 / interlaced=0 / bluray_compat=0 / constrained_intra=0 / bframes=9 / b_pyramid=2 / b_adapt=2 / b_bias=0 / direct=3 / weightb=1 / open_gop=0 / weightp=2 / keyint=250 / keyint_min=25 / scenecut=40 / intra_refresh=0 / rc_lookahead=40 / rc=2pass / mbtree=0 / bitrate=1565 / ratetol=1.0 / qcomp=0.60 / qpmin=0 / qpmax=69 / qpstep=4 / cplxblur=20.0 / qblur=0.5 / vbv_maxrate=14000 / vbv_bufsize=14000 / nal_hrd=none / filler=0 / ip_ratio=1.40 / pb_ratio=1.30 / aq=2:1.00
Default : Да
Forced : Нет
Цветовой диапазон : Limited
Основные цвета : BT.709
Характеристики трансфера : BT.709
Коэффициенты матрицы : BT.709
Аудио
Идентификатор : 2
Формат : AC-3
Формат/Информация : Audio Coding 3
Расширение режима : CM (complete main)
Параметр Endianness формата : Big
Идентификатор кодека : A_AC3
Продолжительность : 47 м. 43 с.
Вид битрейта : Постоянный
Битрейт : 192 Кбит/сек
Каналы : 2 канала
Расположение каналов : Front: L R
Частота : 48,0 КГц
Частота кадров : 31,250 кадров/сек (1536 spf)
Битовая глубина : 16 бит
Метод сжатия : С потерями
Размер потока : 65,5 Мбайт (11%)
Default : Да
Forced : Нет

Скриншоты:


Предыдущие и альтернативные раздачи
Профиль  ЛС 
Показать сообщения:     

Вы не можете начинать темы
Вы не можете отвечать на сообщения
Вы не можете редактировать свои сообщения
Вы не можете удалять свои сообщения
Вы не можете голосовать в опросах
Вы не можете прикреплять файлы к сообщениям
Вы не можете скачивать файлы

Текущее время: 24-Авг 21:59
Часовой пояс: UTC + 5