Пираньи Неаполя / La paranza dei bambini (Клаудио Джованнези) [2019 г., Драма, криминал, BDRip 1080p] Лицензия

Автор Сообщение
rastor ®

Стаж: 10 лет
Сообщений: 4316

Создавать темы rastor ® написал(а)
14-Июн-2019 17:41
Пираньи НеаполяLa paranza dei bambini Год выпуска: 2019
Страна: Италия
Жанр: Драма, криминал
Продолжительность: 01:51:32
Перевод: Профессиональный (полное дублирование)
Субтитры: Русские-Режиссер: Клаудио Джованнези-В ролях: Франческо Ди Наполи, Вивиана Апреа, Маттиа Пиано Дель Бальцо, Чиро Веккьоне, Чиро Пеллекиа, Ар Тем, Альфредо Туритто, Паскуале Маротта, Лука Накарло, Кармине Пиццо-Описание: Они еще очень молоды, но уже смертельно опасны, ведь только самые дерзкие могут стать новыми королями преступного мира Неаполя. Их легко заметить по дорогой одежде, татуировкам и холодному взгляду, когда они прорезают плотный поток машин на скутерах. Их дружба и честь проверяется в уличных перестрелках. Они живут на полную, но готовы убивать и умирать за свою мечту о власти, деньгах и любви…--Качество: BDRip 1080p
Формат: MKV
Видео кодек: H.264
Аудио кодек: AC3, DTS
Видео: 1920x804 23.98fps 12595kbps
Аудио:
Аудио Rus: AC3 48kHz 6ch 384Kbps
Аудио Ukr: AC3 48kHz 6ch 384Kbps
Аудио Ita: DTS 48kHz 6ch 1509Kbps

MediaInfo

Формат : Matroska
Версия формата : Version 4 / Version 2
Размер файла : 11,3 Гбайт
Продолжительность : 1 ч. 51 м.
Общий поток : 14,6 Мбит/сек
Название фильма : La paranza dei bambini BDRip 1080p
Дата кодирования : UTC 2019-06-14 10:45:54
Программа кодирования : mkvmerge v34.0.0 ('Sight and Seen') 64-bit
Библиотека кодирования : libebml v1.3.7 + libmatroska v1.5.0
Обложка : Yes
Attachments : cover.png / x264.log
Видео
Идентификатор : 1
Формат : AVC
Формат/Информация : Advanced Video Codec
Профиль формата : High@L4.1
Настройки формата : CABAC / 5 Ref Frames
Параметр CABAC формата : Да
Параметр RefFrames формата : 5 кадров
Идентификатор кодека : V_MPEG4/ISO/AVC
Продолжительность : 1 ч. 51 м.
Битрейт : 12,3 Мбит/сек
Ширина : 1920 пикселей
Высота : 804 пикселя
Соотношение сторон : 2,40:1
Режим частоты кадров : Постоянный
Частота кадров : 23,976 (24000/1001) кадра/сек
Цветовое пространство : YUV
Субдискретизация насыщенности : 4:2:0
Битовая глубина : 8 бит
Тип развёртки : Прогрессивная
Бит/(Пиксели*Кадры) : 0.332
Размер потока : 9,56 Гбайт (84%)
Заголовок : La paranza dei bambini (2019) - TeamHD Release
Библиотека кодирования : x264 core 157 r2970+47 cae74a0 t_mod_New [0-bit@all X86_64]
Настройки программы : cabac=1 / ref=5 / deblock=1:-3:-3 / analyse=0x3:0x113 / me=umh / subme=11 / psy=1 / fade_compensate=0.00 / psy_rd=1.05:0.00 / mixed_ref=1 / me_range=32 / chroma_me=1 / trellis=2 / 8x8dct=1 / cqm=0 / deadzone=21,11 / fast_pskip=0 / chroma_qp_offset=-3 / threads=12 / lookahead_threads=2 / sliced_threads=0 / nr=0 / decimate=1 / interlaced=0 / bluray_compat=0 / constrained_intra=0 / fgo=0 / bframes=9 / b_pyramid=2 / b_adapt=2 / b_bias=0 / direct=1 / weightb=1 / open_gop=0 / weightp=2 / keyint=250 / keyint_min=23 / scenecut=40 / intra_refresh=0 / rc_lookahead=60 / rc=crf / mbtree=0 / crf=18.4000 / qcomp=0.75 / qpmin=0:0:0 / qpmax=69:69:69 / qpstep=4 / vbv_maxrate=50000 / vbv_bufsize=62500 / crf_max=0.0 / nal_hrd=none / filler=0 / ip_ratio=1.40 / pb_ratio=1.30 / aq=1:1.00 / aq-sensitivity=10.00 / aq-factor=1.00:1.00:1.00 / aq2=0 / aq3=0
Язык : Italian
Default : Да
Forced : Нет
Аудио #1
Идентификатор : 2
Формат : AC-3
Формат/Информация : Audio Coding 3
Идентификатор кодека : A_AC3
Продолжительность : 1 ч. 51 м.
Вид битрейта : Постоянный
Битрейт : 384 Кбит/сек
Каналы : 6 каналов
Расположение каналов : Front: L C R, Side: L R, LFE
Частота : 48,0 КГц
Частота кадров : 31,250 кадров/сек (1536 SPF)
Битовая глубина : 16 бит
Метод сжатия : С потерями
Размер потока : 306 Мбайт (3%)
Заголовок : Russian iTunes
Язык : Russian
Default : Да
Forced : Нет
Аудио #2
Идентификатор : 3
Формат : AC-3
Формат/Информация : Audio Coding 3
Идентификатор кодека : A_AC3
Продолжительность : 1 ч. 51 м.
Вид битрейта : Постоянный
Битрейт : 384 Кбит/сек
Каналы : 6 каналов
Расположение каналов : Front: L C R, Side: L R, LFE
Частота : 48,0 КГц
Частота кадров : 31,250 кадров/сек (1536 SPF)
Битовая глубина : 16 бит
Метод сжатия : С потерями
Размер потока : 306 Мбайт (3%)
Заголовок : Ukrainian MVO iTunes
Язык : Ukrainian
Default : Нет
Forced : Нет
Аудио #3
Идентификатор : 4
Формат : DTS
Формат/Информация : Digital Theater Systems
Идентификатор кодека : A_DTS
Продолжительность : 1 ч. 51 м.
Вид битрейта : Постоянный
Битрейт : 1509 Кбит/сек
Каналы : 6 каналов
Расположение каналов : Front: L C R, Side: L R, LFE
Частота : 48,0 КГц
Частота кадров : 93,750 кадра/сек (512 SPF)
Битовая глубина : 24 бит
Метод сжатия : С потерями
Размер потока : 1,17 Гбайт (10%)
Заголовок : Italian Original
Язык : Italian
Default : Нет
Forced : Нет
Текст
Идентификатор : 5
Формат : UTF-8
Идентификатор кодека : S_TEXT/UTF8
Идентификатор кодека/Информация : UTF-8 Plain Text
Продолжительность : 1 ч. 42 м.
Битрейт : 85 бит/сек
ElementCount : 1121
Размер потока : 64,2 Кбайт (0%)
Заголовок : Russian full
Язык : Russian
Default : Нет
Forced : Нет
Меню
00:00:00.000 : en:Chapter 01
00:12:38.758 : en:Chapter 02
00:24:49.488 : en:Chapter 03
00:39:59.397 : en:Chapter 04
00:55:47.344 : en:Chapter 05
01:12:57.373 : en:Chapter 06
01:28:54.329 : en:Chapter 07
01:41:40.094 : en:Chapter 08
Профиль  ЛС 
Odar

Стаж: 10 лет
Сообщений: 4
Откуда: Уфа

Создавать темы Odar написал(а)
30-Июн-2019 23:36 (спустя 16 дней)
бред
Профиль  ЛС 
DaN1L

Стаж: 9 лет 7 месяцев
Сообщений: 12

Создавать темы DaN1L написал(а)
25-Июл-2019 04:57 (спустя 24 дня)
норм фильм. предыдущий комент от =Odar = бесполезен.....
Профиль  ЛС 
vita777

Стаж: 7 лет 10 месяцев
Сообщений: 7
Откуда: ???

Создавать темы vita777 написал(а)
10-Сен-2019 19:20 (спустя 1 месяц 16 дней)
бред
Профиль  ЛС 
Показать сообщения:     

Вы не можете начинать темы
Вы не можете отвечать на сообщения
Вы не можете редактировать свои сообщения
Вы не можете удалять свои сообщения
Вы не можете голосовать в опросах
Вы не можете прикреплять файлы к сообщениям
Вы не можете скачивать файлы

Текущее время: 16-Сен 22:13
Часовой пояс: UTC + 5