BBC / Сборник документальных фильмов / Джим Аль-Халили [2007-2016] (HDTVRip)

Автор Сообщение
***Ponchik*** ®

Стаж: 6 лет 2 месяца
Сообщений: 254
Откуда: STR

Создавать темы ***Ponchik*** ® написал(а)
31-Май-2019 17:02

Атом

Год выпуска: 2007
Страна: Великобритания
Жанр: Документальный, Наука и технологии
Продолжительность: 3 серии ~ 00:59:00
Перевод: Проф.(Одноголосый)
Режиссер: Тим Усборн
Ведущий: Джим Аль-Халили
Качество: HDTVRip
Формат: AVI
Реклама: отсутствует----Сюжет:
Этот документальный сериал повествует о величайшем в истории научном открытии: из чего состоит весь Мир. Проникая в его глубину, учёные разгадали наиболее шокирующие секреты Природы.
1 серия: Битва титанов (Clash of Titans)
Скрытая ирония истории Больцмана заключается в том, что когда он покончил с собой в 1906 году, он не знал, что был бы оправдан.За год до того, как он умер, один молодой ученый опубликовал статью, в которой бесспорно и неопровержимо провозгласил реальность атома. Его звали Альберт Эйнштейн.
2 серия: Ключ от космоса (The Key to the Cosmos)
Обнаружение того, что атомы созданы в звездах, несомненно, является одним из величайших достижений человечества, за исключением одной вопиющей проблемы, которую Хойл, никогда не сможет объяснить.
Звездным ядерным синтезом можно объяснить как изготовлены все элементы во Вселенной ... за исключением двух.
3 серия: Иллюзия действительности (The Illusion of Reality)
Фейнман сказал: "Мои студенты физики не понимают мою теорию квантовой электродинамики потому, что я ее не понимаю. Никто не понимает".
--

MediaInfo


Format : AVI
Format/Info : Audio Video Interleave
File size : 912 MiB
Duration : 58 min 47 s
Overall bit rate : 2 169 kb/s
Writing application : VirtualDubModRus 1.5.10.2 (build 2540/release)
Writing library : VirtualDubMod build 2540/release
Video #0
ID : 0
Format : MPEG-4 Visual
Format profile : Advanced Simple@L5
Format settings : BVOP2
Format settings, BVOP : 2
Format settings, QPel : No
Format settings, GMC : No warppoints
Format settings, Matrix : Default (H.263)
Muxing mode : Packed bitstream
Codec ID : DX50
Codec ID/Hint : DivX 5
Duration : 58 min 47 s
Bit rate : 1 899 kb/s
Width : 704 pixels
Height : 384 pixels
Display aspect ratio : 1.85:1
Frame rate : 25.000 FPS
Color space : YUV
Chroma subsampling : 4:2:0
Bit depth : 8 bits
Scan type : Progressive
Compression mode : Lossy
Bits/(Pixel*Frame) : 0.281
Stream size : 798 MiB (88%)
Writing library : XviD 1.2.0.dev47 (UTC 2006-11-01)
Audio #1
ID : 1
Format : MPEG Audio
Format version : Version 1
Format profile : Layer 3
Format settings : Joint stereo / MS Stereo
Codec ID : 55
Codec ID/Hint : MP3
Duration : 58 min 47 s
Bit rate mode : Constant
Bit rate : 128 kb/s
Channel(s) : 2 channels
Sampling rate : 48.0 kHz
Frame rate : 41.667 FPS (1152 SPF)
Compression mode : Lossy
Stream size : 53.8 MiB (6%)
Alignment : Aligned on interleaves
Interleave, duration : 40 ms (1.00 video frame)
Interleave, preload duration : 504 ms
Writing library : LAME3.93
Encoding settings : -m j -V 4 -q 0 -lowpass 24 -b 128
Audio #2
ID : 2
Format : MPEG Audio
Format version : Version 1
Format profile : Layer 3
Format settings : Joint stereo / MS Stereo
Codec ID : 55
Codec ID/Hint : MP3
Duration : 58 min 47 s
Bit rate mode : Constant
Bit rate : 128 kb/s
Channel(s) : 2 channels
Sampling rate : 48.0 kHz
Frame rate : 41.667 FPS (1152 SPF)
Compression mode : Lossy
Stream size : 53.8 MiB (6%)
Alignment : Aligned on interleaves
Interleave, duration : 40 ms (1.00 video frame)
Interleave, preload duration : 504 ms
Writing library : LAME3.93
Encoding settings : -m j -V 4 -q 0 -lowpass 24 -b 128

Гармония и хаос

Год выпуска: 2012
Страна: Великобритания
Жанр: Документальный, Наука и технологии
Продолжительность: 2 серии ~00:59:00
Перевод: Люб.(Одноголосый)
Режиссер: Ник стейси
Ведущий: Джим Аль-Халили
Качество: HDTVRip
Формат: AVI
Реклама: отсутствует----Сюжет:
Профессор Джим Аль-Халили совершает захватывающий экскурс в историю, пытаясь разобраться в том, что такое энергия и информация, и какую роль они играют не только для человечества, но и для Вселенной в целом.
1 серия: Энергия (Energy)
Джим Аль-Халили рассказывает захватывающую историю о том, как мы открыли для себя законы, которые управляют нашей Вселенной. Энергия жизненно необходима для всех нас, но что это такое на самом деле? Пытаясь найти ответ на этот вопрос, он исследует странные закономерности, которые связывают между собой абсолютно всё, начиная механизмами и живыми существами и заканчивая звездами.
2 серия: Информация (Information)
Джим показывает нам, как человечество научилось использовать символы, начиная с изобретения письменности до современных цифровых технологий. Важно то, что информация- это не только продукт коммуникации людей между собой, она тесно вплетена в ткань окружающей нас реальности.
--

MediaInfo


Format : AVI
Format/Info : Audio Video Interleave
File size : 849 MiB
Duration : 59 min 17 s
Overall bit rate : 2 002 kb/s
Writing application : VirtualDubMod 1.5.10.3 | www.virtualdub-fr.org || (build 2550/release)
Writing library : VirtualDubMod build 2550/release
Video #0
ID : 0
Format : MPEG-4 Visual
Format profile : Advanced Simple@L5
Format settings : BVOP3 / GMC3 / QPel
Format settings, BVOP : 3
Format settings, QPel : Yes
Format settings, GMC : 3 warppoints
Format settings, Matrix : Default (H.263)
Codec ID : XVID
Codec ID/Hint : XviD
Duration : 59 min 17 s
Bit rate : 1 800 kb/s
Width : 720 pixels
Height : 400 pixels
Display aspect ratio : 16:9
Frame rate : 25.000 FPS
Color space : YUV
Chroma subsampling : 4:2:0
Bit depth : 8 bits
Scan type : Progressive
Compression mode : Lossy
Bits/(Pixel*Frame) : 0.250
Stream size : 763 MiB (90%)
Writing library : XviD 1.2.1 (UTC 2008-12-04)
Audio #1
ID : 1
Format : AC-3
Format/Info : Audio Coding 3
Codec ID : 2000
Duration : 59 min 17 s
Bit rate mode : Constant
Bit rate : 192 kb/s
Channel(s) : 2 channels
Channel positions : Front: L R
Sampling rate : 48.0 kHz
Frame rate : 31.250 FPS (1536 SPF)
Bit depth : 16 bits
Compression mode : Lossy
Stream size : 81.4 MiB (10%)
Alignment : Split accross interleaves
Interleave, duration : 40 ms (1.00 video frame)
Interleave, preload duration : 500 ms
Service kind : Complete Main

Начало и конец вселенной

Год выпуска: 2016
Страна: Великобритания
Жанр: Документальный, Наука и технологии
Продолжительность: 2 серии ~ 00:58:00
Перевод: Люб.(Одноголосый)
Режиссер: Нигел Патерсон
Ведущий: Джим Аль-Халили
Качество: HDTVRip
Формат: AVI
Реклама: отсутствует--Сюжет:
Любое научное открытие не может существовать само по себе – оно базируется на гипотезах, изысканиях и экспериментах целого ряда ученых. Оно обусловлено технологическим и социальным запросом времени. Поэтому, чтобы понять как работает Вселенная, необходимо заглянуть за пределы продолжительности нашей короткой жизни и не раз испытать революционные сдвиги в сознании. В 1905-м году Эйнштейн преподнес человечеству новую теорию, описывающую физические законы.--

MediaInfo


Format : AVI
Format/Info : Audio Video Interleave
File size : 808 MiB
Duration : 59 min 22 s
Overall bit rate : 1 902 kb/s
Writing application : VirtualDubMod 1.5.10.3 | www.virtualdub-fr.org || (build 2550/release)
Writing library : VirtualDubMod build 2550/release
Video #0
ID : 0
Format : MPEG-4 Visual
Format profile : Advanced Simple@L5
Format settings : BVOP1
Format settings, BVOP : 1
Format settings, QPel : No
Format settings, GMC : No warppoints
Format settings, Matrix : Default (MPEG)
Codec ID : XVID
Codec ID/Hint : XviD
Duration : 59 min 22 s
Bit rate : 1 700 kb/s
Width : 720 pixels
Height : 400 pixels
Display aspect ratio : 16:9
Frame rate : 25.000 FPS
Color space : YUV
Chroma subsampling : 4:2:0
Bit depth : 8 bits
Scan type : Progressive
Compression mode : Lossy
Bits/(Pixel*Frame) : 0.236
Stream size : 722 MiB (89%)
Writing library : XviD 65
Audio #1
ID : 1
Format : AC-3
Format/Info : Audio Coding 3
Codec ID : 2000
Duration : 59 min 22 s
Bit rate mode : Constant
Bit rate : 192 kb/s
Channel(s) : 2 channels
Channel positions : Front: L R
Sampling rate : 48.0 kHz
Frame rate : 31.250 FPS (1536 SPF)
Bit depth : 16 bits
Compression mode : Lossy
Stream size : 81.5 MiB (10%)
Alignment : Split accross interleaves
Interleave, duration : 40 ms (1.00 video frame)
Interleave, preload duration : 500 ms
Service kind : Complete Main

Секреты квантовой физики

Год выпуска: 2014
Страна: Великобритания
Жанр: Документальный, Наука и технологии
Продолжительность: 2 серии ~ 01:00:00
Перевод: Люб.(Одноголосый)
Режиссер: Тим Усборн
Ведущий: Джим Аль-Халили
Качество: HDTVRip
Формат: AVI
Реклама: отсутствует----Сюжет:
Профессор физики Джим Аль-Халили исследует наиболее точную и одну из самых запутанных научных теорий - квантовую физику.
Часть 1: Кошмар Эйнштейна (Einsteins Nightmare)
В начале 20-го века учёные проникли в скрытые глубины материи, в субатомные строительные блоки мира вокруг нас. Они обнаружили явления, которые отличаются от всего увиденного ранее. Мир, где всё может находится во многих местах одновременно, где действительность по-настоящему существует, лишь когда мы наблюдаем за ней. Альберт Эйнштейн противился одной только мысли о том, что в основе сущности природы лежит случайность. Джим расскажет, как в 1930-е годы Эйнштейн решил, что нашёл главный недостаток в квантовой физике. Квантовая физика подразумевает, что субатомные частицы могут взаимодействовать быстрее скорости света, а это противоречит его теории относительности. В 1960-е годы физик Джон Белл показал, что есть способ проверить, прав ли Эйнштейн, и не является ли квантовая механика ошибкой.
Часть 2: Да будет Жизнь (Let there be Life)
Может ли квантовая физика объяснить величайшие тайны живой природы?
Навигация зарянки при перелётах связана с одним из самых странных явлений в физике - квантовой запутанностью. Кажется, что оно бросает вызов здравому смыслу. Джим считает, что даже в чувствах человека прослеживается квантовый след: обоняние использует квантовые колебания, а новые эксперименты показывают, что наш нос может слушать запахи. Джим расскажет, что когда растения и деревья в процессе фотосинтеза захватывают солнечный свет, они подчиняются известному закону квантовой физики - принципу неопределенности. Вопреки здравому смыслу, удивительные законы субатомного мира позволяют элементарным частицам преодолевать барьеры насквозь, как по туннелю. Может они оказывают влияние и на механизмы видоизменения живых организмов?
--

MediaInfo


Format : AVI
Format/Info : Audio Video Interleave
File size : 779 MiB
Duration : 58 min 53 s
Overall bit rate : 1 848 kb/s
Writing application : VirtualDubMod 1.5.10.3 | www.virtualdub-fr.org || (build 2550/release)
Writing library : VirtualDubMod build 2550/release
Video #0
ID : 0
Format : MPEG-4 Visual
Format profile : Advanced Simple@L5
Format settings : BVOP1
Format settings, BVOP : 1
Format settings, QPel : No
Format settings, GMC : No warppoints
Format settings, Matrix : Default (H.263)
Codec ID : XVID
Codec ID/Hint : XviD
Duration : 58 min 53 s
Bit rate : 1 450 kb/s
Width : 720 pixels
Height : 400 pixels
Display aspect ratio : 16:9
Frame rate : 25.000 FPS
Color space : YUV
Chroma subsampling : 4:2:0
Bit depth : 8 bits
Scan type : Progressive
Compression mode : Lossy
Bits/(Pixel*Frame) : 0.201
Stream size : 611 MiB (78%)
Writing library : XviD 73
Audio #1
ID : 1
Format : AC-3
Format/Info : Audio Coding 3
Codec ID : 2000
Duration : 58 min 53 s
Bit rate mode : Constant
Bit rate : 192 kb/s
Channel(s) : 2 channels
Channel positions : Front: L R
Sampling rate : 48.0 kHz
Frame rate : 31.250 FPS (1536 SPF)
Bit depth : 16 bits
Compression mode : Lossy
Stream size : 80.9 MiB (10%)
Alignment : Split accross interleaves
Interleave, duration : 40 ms (1.00 video frame)
Interleave, preload duration : 500 ms
Service kind : Complete Main
Audio #2
ID : 2
Format : AC-3
Format/Info : Audio Coding 3
Codec ID : 2000
Duration : 58 min 53 s
Bit rate mode : Constant
Bit rate : 192 kb/s
Channel(s) : 2 channels
Channel positions : Front: L R
Sampling rate : 48.0 kHz
Frame rate : 31.250 FPS (1536 SPF)
Bit depth : 16 bits
Compression mode : Lossy
Stream size : 80.9 MiB (10%)
Alignment : Split accross interleaves
Interleave, duration : 40 ms (1.00 video frame)
Interleave, preload duration : 500 ms
Service kind : Complete Main

Химия, изменчивая история

Год выпуска: 2010
Страна: Великобритания
Жанр: Документальный, Наука и технологии
Продолжительность: 3 серии ~ 01:00:00
Перевод: Проф.(Одноголосый)
Режиссер: Рос Хомэн, Джон Стивенс
Ведущий: Джим Аль-Халили
Качество: HDTVRip
Формат: AVI
Реклама: отсутствует----Сюжет:
В этом фильме профессор теоретической физики Джим Аль-Хэлили прослеживает экстраординарную историю того, как элементы были обнаружены и нанесены на карту. Он следует за шагами пионеров, которые взломали их тайны и создали новую науку, продвигая нас в наше время.--

MediaInfo


Format : AVI
Format/Info : Audio Video Interleave
File size : 605 MiB
Duration : 50 min 59 s
Overall bit rate : 1 658 kb/s
Video #0
ID : 0
Format : MPEG-4 Visual
Format profile : Advanced Simple@L5
Format settings : BVOP2 / Custom Matrix
Format settings, BVOP : 2
Format settings, QPel : No
Format settings, GMC : No warppoints
Format settings, Matrix : Custom
Codec ID : XVID
Codec ID/Hint : XviD
Duration : 50 min 55 s
Bit rate : 1 523 kb/s
Width : 704 pixels
Height : 400 pixels
Display aspect ratio : 16:9
Frame rate : 25.000 FPS
Color space : YUV
Chroma subsampling : 4:2:0
Bit depth : 8 bits
Scan type : Progressive
Compression mode : Lossy
Bits/(Pixel*Frame) : 0.216
Stream size : 555 MiB (92%)
Writing library : XviD 1.2.1 (UTC 2008-12-04)
Audio #1
ID : 1
Format : MPEG Audio
Format version : Version 1
Format profile : Layer 3
Format settings : Joint stereo / MS Stereo
Codec ID : 55
Codec ID/Hint : MP3
Duration : 50 min 59 s
Source duration : 50 min 55 s
Bit rate mode : Constant
Bit rate : 128 kb/s
Channel(s) : 2 channels
Sampling rate : 48.0 kHz
Compression mode : Lossy
Stream size : 46.6 MiB (8%)
Alignment : Aligned on interleaves
Interleave, duration : 40 ms (1.00 video frame)

Шок и трепет

Год выпуска: 2011
Страна: Великобритания
Жанр: Документальный, Наука и технологии
Продолжительность: 3 серии ~ 00:59:00
Перевод: Проф.(Одноголосый)
Режиссер: Джон Истмэн, Алекс Фриман, Тим Усборн
Ведущий: Джим Аль-Халили
Качество: HDTVRip
Формат: AVI
Реклама: отсутствует----Сюжет:
Британский профессор Джим Аль-Халили представляет удивительную историю открытия и освоения одного из самых загадочных явлений природы – электричества. Еще совсем недавно электричество казалось сплошным волшебством и магией, а сегодня без него уже трудно представить себе нашу жизнь. Этот документальный фильм рассказывает о гигантском прорыве человеческой мысли и необыкновенных экспериментах гениальных ученых, благодаря которым в мире появился электрический свет, междугородняя связь и цифровая революция.--

MediaInfo


Format : Matroska
Format version : Version 2
File size : 1.56 GiB
Duration : 59 min 18 s
Overall bit rate : 3 765 kb/s
Encoded date : UTC 2012-01-26 19:35:10
Writing application : mkvmerge v5.1.0 ('And so it goes') built on Nov 28 2011 23:58:28
Writing library : libebml v1.2.3 + libmatroska v1.3.0
Video #1
ID : 1
Format : AVC
Format/Info : Advanced Video Codec
Format profile : High@L4.1
Format settings : CABAC / 4 Ref Frames
Format settings, CABAC : Yes
Format settings, ReFrames : 4 frames
Codec ID : V_MPEG4/ISO/AVC
Duration : 59 min 18 s
Bit rate : 3 300 kb/s
Width : 1 280 pixels
Height : 720 pixels
Display aspect ratio : 16:9
Frame rate mode : Constant
Frame rate : 25.000 FPS
Color space : YUV
Chroma subsampling : 4:2:0
Bit depth : 8 bits
Scan type : Progressive
Bits/(Pixel*Frame) : 0.143
Stream size : 1.34 GiB (86%)
Writing library : x264 core 116 r2074 2641b9e
Encoding settings : cabac=1 / ref=2 / deblock=1:0:0 / analyse=0x3:0x113 / me=hex / subme=4 / psy=1 / psy_rd=1.00:0.00 / mixed_ref=1 / me_range=16 / chroma_me=1 / trellis=0 / 8x8dct=1 / cqm=0 / deadzone=21,11 / fast_pskip=1 / chroma_qp_offset=0 / threads=7 / sliced_threads=0 / nr=0 / decimate=1 / interlaced=0 / bluray_compat=0 / constrained_intra=0 / bframes=3 / b_pyramid=2 / b_adapt=1 / b_bias=0 / direct=3 / weightb=1 / open_gop=0 / weightp=2 / keyint=250 / keyint_min=25 / scenecut=40 / intra_refresh=0 / rc_lookahead=40 / rc=abr / mbtree=1 / bitrate=3300 / ratetol=1.0 / qcomp=0.60 / qpmin=10 / qpmax=51 / qpstep=4 / vbv_maxrate=50000 / vbv_bufsize=50000 / nal_hrd=none / ip_ratio=1.40 / aq=1:1.00
Default : No
Forced : No
Audio #2
ID : 2
Format : AC-3
Format/Info : Audio Coding 3
Codec ID : A_AC3
Duration : 59 min 18 s
Bit rate mode : Constant
Bit rate : 224 kb/s
Channel(s) : 2 channels
Channel positions : Front: L R
Sampling rate : 48.0 kHz
Frame rate : 31.250 FPS (1536 SPF)
Bit depth : 16 bits
Compression mode : Lossy
Stream size : 95.0 MiB (6%)
Language : Russian
Service kind : Complete Main
Default : No
Forced : No
Audio #3
ID : 3
Format : AC-3
Format/Info : Audio Coding 3
Codec ID : A_AC3
Duration : 59 min 18 s
Bit rate mode : Constant
Bit rate : 224 kb/s
Channel(s) : 2 channels
Channel positions : Front: L R
Sampling rate : 48.0 kHz
Frame rate : 31.250 FPS (1536 SPF)
Bit depth : 16 bits
Compression mode : Lossy
Stream size : 95.0 MiB (6%)
Language : English
Service kind : Complete Main
Default : No
Forced : No

Тайны атомной эры

Год выпуска: 2015
Страна: Великобритания
Жанр: Документальный, Наука и технологии
Продолжительность: 1 серия ~ 00:50:00
Перевод: Проф.(Одноголосый)
Режиссер: Тим Усборн
Ведущий: Джим Аль-Халили
Качество: HDTVRip
Формат: AVI
Реклама: отсутствует--Сюжет:
Селлафилд - краеугольный камень ядерной промышленности Великобритании. Впервые в истории атомный комплекс откроет двери телевизионным камерам. Это экскурсия по одному из самых спорных мест страны. Мы откроем вам секреты, которые хранились на протяжении 60 лет.--

MediaInfo


Format : AVI
Format/Info : Audio Video Interleave
File size : 760 MiB
Duration : 50 min 34 s
Overall bit rate : 2 102 kb/s
Writing application : VirtualDubMod 1.5.10.3 | www.virtualdub-fr.org || (build 2550/release)
Writing library : VirtualDubMod build 2550/release
Video #0
ID : 0
Format : MPEG-4 Visual
Format profile : Advanced Simple@L5
Format settings : BVOP1
Format settings, BVOP : 1
Format settings, QPel : No
Format settings, GMC : No warppoints
Format settings, Matrix : Default (MPEG)
Codec ID : XVID
Codec ID/Hint : XviD
Duration : 50 min 34 s
Bit rate : 1 900 kb/s
Width : 720 pixels
Height : 400 pixels
Display aspect ratio : 16:9
Frame rate : 25.000 FPS
Color space : YUV
Chroma subsampling : 4:2:0
Bit depth : 8 bits
Scan type : Progressive
Compression mode : Lossy
Bits/(Pixel*Frame) : 0.264
Stream size : 687 MiB (90%)
Writing library : XviD 65
Audio #1
ID : 1
Format : AC-3
Format/Info : Audio Coding 3
Codec ID : 2000
Duration : 50 min 34 s
Bit rate mode : Constant
Bit rate : 192 kb/s
Channel(s) : 2 channels
Channel positions : Front: L R
Sampling rate : 48.0 kHz
Frame rate : 31.250 FPS (1536 SPF)
Bit depth : 16 bits
Compression mode : Lossy
Stream size : 69.5 MiB (9%)
Alignment : Split accross interleaves
Interleave, duration : 40 ms (1.00 video frame)
Interleave, preload duration : 500 ms
Service kind : Complete Main

ВВС Я и гравитация.Сила, определяющая нашу жизнь

Год выпуска: 2017
Страна: Великобритания
Жанр: Документальный, Наука и технологии
Продолжительность: 1 серия ~ 01:26:00
Перевод: Проф.(Одноголосый)
Режиссер: Тим Усборн
Ведущий: Джим Аль-Халили
Качество: HDTVRip
Формат: AVI
Реклама: отсутствует--Сюжет:
Она определяет облик всей нашей вселенной и способна изменять наш вес. Профессор Аль-Халили рассказывает много интересного о гравитации, о новейших исследованиях и интерактивных экспериментах на эту тему.--

MediaInfo


Format : Matroska
Format version : Version 4 / Version 2
File size : 4.95 GiB
Duration : 1 h 26 min
Overall bit rate : 8 153 kb/s
Encoded date : UTC 2018-08-22 17:13:24
Writing application : mkvmerge v6.6.0 ('The Edge Of The In Between') built on Dec 1 2013 17:55:00
Writing library : libebml v1.3.0 + libmatroska v1.4.1
Video #1
ID : 1
Format : AVC
Format/Info : Advanced Video Codec
Format profile : Main@L4
Format settings : CABAC / 4 Ref Frames
Format settings, CABAC : Yes
Format settings, ReFrames : 4 frames
Codec ID : V_MPEG4/ISO/AVC
Duration : 1 h 26 min
Bit rate : 7 159 kb/s
Width : 1 920 pixels
Height : 1 080 pixels
Display aspect ratio : 16:9
Frame rate mode : Constant
Frame rate : 25.000 FPS
Color space : YUV
Chroma subsampling : 4:2:0
Bit depth : 8 bits
Scan type : Interlaced
Scan type, store method : Separated fields
Scan order : Top Field First
Bits/(Pixel*Frame) : 0.138
Stream size : 4.35 GiB (88%)
Default : Yes
Forced : No
Color range : Limited
Color primaries : BT.709
Transfer characteristics : BT.709
Matrix coefficients : BT.709
Audio #2
ID : 2
Format : AC-3
Format/Info : Audio Coding 3
Codec ID : A_AC3
Duration : 1 h 26 min
Bit rate mode : Constant
Bit rate : 448 kb/s
Channel(s) : 6 channels
Channel positions : Front: L C R, Side: L R, LFE
Sampling rate : 48.0 kHz
Frame rate : 31.250 FPS (1536 SPF)
Bit depth : 16 bits
Compression mode : Lossy
Stream size : 279 MiB (5%)
Title : 1ТВЧ
Language : Russian
Service kind : Complete Main
Default : No
Forced : Yes
Audio #3
ID : 3
Format : AC-3
Format/Info : Audio Coding 3
Codec ID : A_AC3
Duration : 1 h 26 min
Bit rate mode : Constant
Bit rate : 192 kb/s
Channel(s) : 2 channels
Channel positions : Front: L R
Sampling rate : 48.0 kHz
Frame rate : 31.250 FPS (1536 SPF)
Bit depth : 16 bits
Compression mode : Lossy
Stream size : 119 MiB (2%)
Language : Russian
Service kind : Complete Main
Default : Yes
Forced : No
Audio #4
ID : 4
Format : AC-3
Format/Info : Audio Coding 3
Codec ID : A_AC3
Duration : 1 h 26 min
Bit rate mode : Constant
Bit rate : 192 kb/s
Channel(s) : 2 channels
Channel positions : Front: L R
Sampling rate : 48.0 kHz
Frame rate : 31.250 FPS (1536 SPF)
Bit depth : 16 bits
Compression mode : Lossy
Stream size : 119 MiB (2%)
Language : English
Service kind : Complete Main
Default : No
Forced : No


Последний раз редактировалось: ***Ponchik*** (2019-06-27 15:07), всего редактировалось 2 раз(а)
Профиль  ЛС 
***Ponchik*** ®

Стаж: 6 лет 2 месяца
Сообщений: 254
Откуда: STR

Создавать темы ***Ponchik*** ® написал(а)
31-Май-2019 17:04 (спустя 2 минуты)
Ой видимо не туды надеюсь перекинут :)
Профиль  ЛС 
Создавать темы 01-Июн-2019 05:44 (спустя 12 часов)
Топик был перенесен из форума Зарубежные сериалы в форум BBC
Stalus
Причина переноса:
 
Показать сообщения:     

Вы не можете начинать темы
Вы не можете отвечать на сообщения
Вы не можете редактировать свои сообщения
Вы не можете удалять свои сообщения
Вы не можете голосовать в опросах
Вы не можете прикреплять файлы к сообщениям
Вы не можете скачивать файлы

Текущее время: 23-Авг 04:14
Часовой пояс: UTC + 5