Тебя никогда здесь не было / You Were Never Really Here (Линн Рэмси) [2017 г., Триллер, драма, детектив, BDRip 1080p] MVO Лицензия

Автор Сообщение
rastor ®

Стаж: 10 лет
Сообщений: 4279

Создавать темы rastor ® написал(а)
01-Май-2018 01:13
Тебя никогда здесь не былоYou Were Never Really Here Год выпуска: 2017
Страна: Великобритания, Франция, США
Жанр: Триллер, драма, детектив
Продолжительность: 01:29:28
Перевод:
*Профессиональный (многоголосый) Лицензия
*Любительский (многоголосый) HDRezka Studio
Субтитры: Русские, английские-Режиссер: Линн Рэмси-В ролях: Хоакин Феникс, Данте Перейра-Олсон, Винисиус Дамассено, Нео Рэндолл, Джудит Анна Робертс, Фрэнк Пандо, Джон Доумен, Эдвард Лэтэм, Алекс Манетт, Клер Сюй-Описание: У сурового Джо непростая судьба. Он никого не боится, лишь вспышки воспоминаний заставляют его вздрагивать. Безжалостный герой-одиночка, идущий напролом ради спасения слабых. Для Нины, юной дочери сенатора, Джо — единственная надежда. И даже самые изощрённые и жестокие силы не должны помешать ему вызволить её из ада, в который она попала.- -Качество: BDRip 1080p
Формат: MKV
Видео кодек: H.264
Аудио кодек: AC3
Видео: 1920x804 24fps 10547kbps
Аудио:
Аудио MVO: 48kHz 6ch 384kbps
Аудио MVO HDRezka Studio: 48kHz 2ch 192kbps
Аудио Eng: 48kHz 6ch 640kbps

MediaInfo

Формат : Matroska
Версия формата : Version 4 / Version 2
Размер файла : 7,19 Гбайт
Продолжительность : 1 ч. 29 м.
Общий поток : 11,5 Мбит/сек
Название фильма : Тебя никогда здесь не было
Дата кодирования : UTC 2018-04-30 18:17:28
Программа кодирования : mkvmerge v7.3.0 ('Nouages') 64bit built on Oct 22 2014 18:53:34
Библиотека кодирования : libebml v1.3.0 + libmatroska v1.4.1
DURATION : 01:29:22.656000000
NUMBER_OF_FRAMES : 167583
NUMBER_OF_BYTES : 257407488
_STATISTICS_WRITING_APP : mkvmerge v7.3.0 ('Nouages') 64bit built on Oct 22 2014 18:53:34
_STATISTICS_WRITING_DATE_UTC : 2018-04-30 18:17:28
_STATISTICS_TAGS : BPS DURATION NUMBER_OF_FRAMES NUMBER_OF_BYTES
Видео
Идентификатор : 1
Формат : AVC
Формат/Информация : Advanced Video Codec
Профиль формата : High@L4.1
Параметр CABAC формата : Да
Параметр ReFrames формата : 5 кадров
Идентификатор кодека : V_MPEG4/ISO/AVC
Продолжительность : 1 ч. 29 м.
Битрейт : 10,3 Мбит/сек
Ширина : 1920 пикселей
Высота : 804 пикселя
Соотношение сторон : 2,40:1
Режим частоты кадров : Постоянный
Частота кадров : 24,000 кадра/сек
Цветовое пространство : YUV
Субдискретизация насыщенности : 4:2:0
Битовая глубина : 8 бит
Тип развёртки : Прогрессивная
Бит/(Пиксели*Кадры) : 0.278
Размер потока : 6,28 Гбайт (87%)
Библиотека кодирования : x264 core 148 r2705 3f5ed56
Настройки программы : cabac=1 / ref=5 / deblock=1:-2:-2 / analyse=0x3:0x133 / me=umh / subme=11 / psy=1 / psy_rd=1.05:0.05 / mixed_ref=1 / me_range=32 / chroma_me=1 / trellis=2 / 8x8dct=1 / cqm=0 / deadzone=21,11 / fast_pskip=0 / chroma_qp_offset=-3 / threads=12 / lookahead_threads=2 / sliced_threads=0 / nr=0 / decimate=0 / interlaced=0 / bluray_compat=0 / constrained_intra=0 / bframes=8 / b_pyramid=2 / b_adapt=2 / b_bias=0 / direct=3 / weightb=1 / open_gop=0 / weightp=2 / keyint=240 / keyint_min=24 / scenecut=40 / intra_refresh=0 / rc_lookahead=50 / rc=2pass / mbtree=0 / bitrate=10300 / ratetol=1.0 / qcomp=0.60 / qpmin=0 / qpmax=51 / qpstep=4 / cplxblur=20.0 / qblur=0.5 / vbv_maxrate=50000 / vbv_bufsize=62500 / nal_hrd=none / filler=0 / ip_ratio=1.40 / pb_ratio=1.30 / aq=3:0.80
Язык : English
Default : Да
Forced : Нет
DURATION : 01:29:28.500000000
NUMBER_OF_FRAMES : 128844
NUMBER_OF_BYTES : 6900477232
_STATISTICS_WRITING_APP : mkvmerge v7.3.0 ('Nouages') 64bit built on Oct 22 2014 18:53:34
_STATISTICS_WRITING_DATE_UTC : 2018-04-30 18:17:28
_STATISTICS_TAGS : BPS DURATION NUMBER_OF_FRAMES NUMBER_OF_BYTES
Аудио #1
Идентификатор : 2
Формат : AC-3
Формат/Информация : Audio Coding 3
Расширение режима : CM (complete main)
Параметр Endianness формата : Big
Идентификатор кодека : A_AC3
Продолжительность : 1 ч. 29 м.
Вид битрейта : Постоянный
Битрейт : 384 Кбит/сек
Каналы : 6 каналов
Расположение каналов : Front: L C R, Side: L R, LFE
Частота : 48,0 КГц
Битовая глубина : 16 бит
Метод сжатия : С потерями
Размер потока : 246 Мбайт (3%)
Заголовок : iTunes
Язык : Russian
Default : Да
Forced : Да
Аудио #2
Идентификатор : 3
Формат : AC-3
Формат/Информация : Audio Coding 3
Расширение режима : CM (complete main)
Параметр Endianness формата : Big
Идентификатор кодека : A_AC3
Продолжительность : 1 ч. 29 м.
Вид битрейта : Постоянный
Битрейт : 192 Кбит/сек
Каналы : 2 канала
Расположение каналов : Front: L R
Частота : 48,0 КГц
Битовая глубина : 16 бит
Метод сжатия : С потерями
Размер потока : 123 Мбайт (2%)
Заголовок : MVO [HDRezka]
Язык : Russian
Default : Нет
Forced : Нет
Аудио #3
Идентификатор : 4
Формат : AC-3
Формат/Информация : Audio Coding 3
Расширение режима : CM (complete main)
Параметр Endianness формата : Big
Идентификатор кодека : A_AC3
Продолжительность : 1 ч. 29 м.
Вид битрейта : Постоянный
Битрейт : 640 Кбит/сек
Каналы : 6 каналов
Расположение каналов : Front: L C R, Side: L R, LFE
Частота : 48,0 КГц
Битовая глубина : 16 бит
Метод сжатия : С потерями
Размер потока : 410 Мбайт (6%)
Заголовок : Original
Язык : English
Default : Нет
Forced : Нет
Текст #1
Идентификатор : 5
Формат : UTF-8
Идентификатор кодека : S_TEXT/UTF8
Идентификатор кодека/Информация : UTF-8 Plain Text
Заголовок : Full
Язык : Russian
Default : Нет
Forced : Нет
Текст #2
Идентификатор : 6
Формат : UTF-8
Идентификатор кодека : S_TEXT/UTF8
Идентификатор кодека/Информация : UTF-8 Plain Text
Заголовок : Full
Язык : English
Default : Нет
Forced : Нет
Меню
00:00:00.000 : en:Chapter 1
00:11:50.292 : en:Chapter 2
00:22:44.375 : en:Chapter 3
00:31:55.833 : en:Chapter 4
00:42:47.375 : en:Chapter 5
00:53:22.583 : en:Chapter 6
01:01:47.250 : en:Chapter 7
01:09:53.625 : en:Chapter 8
Профиль  ЛС 
gron999

Стаж: 10 лет
Сообщений: 56
Откуда: Россия

Создавать темы gron999 написал(а)
01-Май-2018 13:45 (спустя 12 часов)
Ппц, ходить на этот фильм трезвыми - большая ошибка! Повелись на высокие оценки кинопоиска и сильно пожалели об этом. Пол фильма ждали, что этот бред, который происходил на экране - авторская находка, счас вот-вот закончится и пойдет хоть какое-то здравомысленное кино... А нет, постигло разочарование. Вторую половину просто насилу досматривали, жутко жалея о о потерянном времени и деньгах. Многие в зале так же откровенно скучали, тыкались в телефоны... самые умные встали и ушли. Блин, и нам так же надо было, когда уже стало ясно, что всё это - обкуренная депресняковая бредятина. ★1/10
Профиль  ЛС 
Heinz Klomphenshtock

Стаж: 9 лет 5 месяцев
Сообщений: 92
Откуда: ??

Создавать темы Heinz Klomphenshtock написал(а)
01-Май-2018 19:06 (спустя 5 часов)
посмотрел фильм - отличный. Феникс как обычно на высоте. лютая драматичная фильма про справедливость и доброту.
сурово, жизненно, мощно
Профиль  ЛС 
Создавать темы 01-Май-2018 20:09 (спустя 1 час 3 минуты)
Топик был перенесен из форума Зарубежное кино HD в форум Арт-хаус и авторское кино HD
Lostik
Причина переноса:
 
ALLTek

Стаж: 10 лет
Сообщений: 70

Создавать темы ALLTek написал(а)
02-Май-2018 17:45 (спустя 22 часа)
Отличный фильм
Профиль  ЛС 
Kriegsmarine

Стаж: 2 года 3 месяца
Сообщений: 3

Создавать темы Kriegsmarine написал(а)
02-Май-2018 22:01 (спустя 4 часа)
Спасибо!
Профиль  ЛС 
Turpa

Стаж: 8 лет 8 месяцев
Сообщений: 194
Откуда: ??

Создавать темы Turpa написал(а)
04-Авг-2018 00:54 (спустя 3 месяца 1 день)
не стоит тратить время.......
Профиль  ЛС 
PoloTenchik02

Стаж: 10 лет
Сообщений: 341

Создавать темы PoloTenchik02 написал(а)
16-Дек-2018 18:43 (спустя 4 месяца 12 дней)
Сильный фильм.
Профиль  ЛС 
Показать сообщения:     

Вы не можете начинать темы
Вы не можете отвечать на сообщения
Вы не можете редактировать свои сообщения
Вы не можете удалять свои сообщения
Вы не можете голосовать в опросах
Вы не можете прикреплять файлы к сообщениям
Вы не можете скачивать файлы

Текущее время: 23-Авг 14:56
Часовой пояс: UTC + 5