Ёлки новые (Жора Крыжовников, Дмитрий Киселёв, Александр Карпиловский) [2017 г., Комедия, мелодрама, WEB-DL 1080р]

Автор Сообщение
rastor ®

Стаж: 13 лет
Сообщений: 5102

Создавать темы rastor ® написал(а)
22-Янв-2018 14:51
Ёлки новые Год выпуска: 2017
Страна: Россия
Жанр: Комедия, мелодрама
Продолжительность: 01:25:40
Перевод: Не требуется-Режиссер: Жора Крыжовников, Дмитрий Киселёв, Александр Карпиловский-В ролях: Иван Ургант, Сергей Светлаков, Дмитрий Нагиев, Юлия Александрова, Антон Богданов, Валентина Мазунина, Елена Яковлева, Сергей Пускепалис-Описание: В декабре 2017 будет жарко! Дружба Жени и Бори едва не сгорит в огне семейного скандала; глубоко беременная Снегурочка отправится в Одиссею по нижегородским семьям; отчаянная Галя из Новосибирска пойдет на все, чтобы провести ночь с любимым врачом; экстремальный поход в лес за елкой станет проверкой на прочность для юного хипстера из Тюмени и его потенциального отчима. Новые и хорошо знакомые герои «Ёлок» влюбляются, ссорятся и мирятся, совершают геройские поступки и попадают впросак, лишь бы найти на Новый год настоящую родственную душу, как один смелый мальчик из Хабаровска, сбежавший в поисках новой мамы в Москву. И помочь им может только чудо… или вся страна!- -Качество: WEB-DL 1080р
Формат: MKV
Видео кодек: H.264
Аудио кодек: AC3
Видео: 1920x800 24fps 5120kbps
Аудио: 48kHz 2ch 384kbps

MediaInfo

Формат : Matroska
Версия формата : Version 4 / Version 2
Размер файла : 3,29 Гбайт
Продолжительность : 1 ч. 25 м.
Общий поток : 5502 Кбит/сек
Программа кодирования : Lavf57.25.100
Библиотека кодирования : Lavf57.25.100 / Lavf57.25.100
Видео
Идентификатор : 1
Формат : AVC
Формат/Информация : Advanced Video Codec
Профиль формата : High@L4
Параметр CABAC формата : Да
Параметр ReFrames формата : 4 кадра
Идентификатор кодека : V_MPEG4/ISO/AVC
Продолжительность : 1 ч. 25 м.
Битрейт : 5120 Кбит/сек
Ширина : 1920 пикселей
Высота : 800 пикселей
Соотношение сторон : 2,40:1
Режим частоты кадров : Постоянный
Частота кадров : 24,000 кадра/сек
Цветовое пространство : YUV
Субдискретизация насыщенности : 4:2:0
Битовая глубина : 8 бит
Тип развёртки : Прогрессивная
Бит/(Пиксели*Кадры) : 0.139
Размер потока : 3,00 Гбайт (91%)
Библиотека кодирования : x264 core 142
Настройки программы : cabac=1 / ref=3 / deblock=1:0:0 / analyse=0x3:0x113 / me=hex / subme=7 / psy=1 / psy_rd=1.00:0.00 / mixed_ref=1 / me_range=16 / chroma_me=1 / trellis=1 / 8x8dct=1 / cqm=0 / deadzone=21,11 / fast_pskip=1 / chroma_qp_offset=-2 / threads=36 / lookahead_threads=6 / sliced_threads=0 / nr=0 / decimate=1 / interlaced=0 / bluray_compat=0 / constrained_intra=0 / bframes=6 / b_pyramid=2 / b_adapt=1 / b_bias=0 / direct=1 / weightb=1 / open_gop=0 / weightp=2 / keyint=48 / keyint_min=25 / scenecut=0 / intra_refresh=0 / rc_lookahead=40 / rc=2pass / mbtree=1 / bitrate=5120 / ratetol=1.0 / qcomp=0.60 / qpmin=0 / qpmax=69 / qpstep=4 / cplxblur=20.0 / qblur=0.5 / vbv_maxrate=7680 / vbv_bufsize=20480 / nal_hrd=none / filler=0 / ip_ratio=1.40 / aq=1:1.00
Default : Да
Forced : Нет
DURATION : 01:25:39.875000000
Аудио
Идентификатор : 2
Формат : AC-3
Формат/Информация : Audio Coding 3
Расширение режима : CM (complete main)
Параметр Endianness формата : Big
Идентификатор кодека : A_AC3
Продолжительность : 1 ч. 25 м.
Вид битрейта : Постоянный
Битрейт : 384 Кбит/сек
Каналы : 2 канала
Расположение каналов : Front: L R
Частота : 48,0 КГц
Частота кадров : 31,250 кадров/сек (1536 spf)
Метод сжатия : С потерями
Задержка видео : -83 мс.
Размер потока : 235 Мбайт (7%)
Язык : unknown
Default : Да
Forced : Нет
DURATION : 01:25:39.808000000
Профиль  ЛС 
Wanted69

Стаж: 9 лет 6 месяцев
Сообщений: 128
Откуда: Стерлитамак

Создавать темы Wanted69 написал(а)
22-Янв-2018 16:36 (спустя 1 час 45 минут)
Эта какая часть по счету?
Профиль  ЛС 
aslan1690

Стаж: 4 года 3 месяца
Сообщений: 100
Откуда: Россия

Создавать темы aslan1690 написал(а)
22-Янв-2018 18:17 (спустя 1 час 40 минут)
rastor, Спасибо Большое!!!!!!!!! ab
Профиль  ЛС 
Санек!

Стаж: 12 лет
Сообщений: 143
Откуда: Уфа

Создавать темы Санек! написал(а)
22-Янв-2018 18:43 (спустя 26 минут)
Везди эти хари Уральские.
Профиль  ЛС 
yadok1

Стаж: 11 лет
Сообщений: 15
Откуда: ??

Создавать темы yadok1 написал(а)
22-Янв-2018 19:46 (спустя 1 час 3 минуты)
Благодарю!
Профиль  ЛС 
zema220681

Стаж: 6 лет 5 месяцев
Сообщений: 80
Откуда: Уфа

Создавать темы zema220681 написал(а)
23-Янв-2018 12:06 (спустя 16 часов)
Нагиев красава, остальное так себе.
Профиль  ЛС 
LOWRIDER202

Стаж: 12 лет
Сообщений: 133
Откуда: MEXICO

Создавать темы LOWRIDER202 написал(а)
23-Янв-2018 20:22 (спустя 8 часов)
Wanted69,
Седьмая часть
Профиль  ЛС 
koperxxxxx

Стаж: 13 лет
Сообщений: 1

Создавать темы koperxxxxx написал(а)
25-Янв-2018 21:37 (спустя 2 дня 1 час)
5252101Благодарю!
Профиль  ЛС 
t-cott

Стаж: 10 лет
Сообщений: 15
Откуда: Уфа

Создавать темы t-cott написал(а)
26-Янв-2018 09:51 (спустя 12 часов)
только Нагиев весь фильм тащил, худшие Елки
Профиль  ЛС 
HAZE999

Стаж: 12 лет
Сообщений: 14
Откуда: Ufa

Создавать темы HAZE999 написал(а)
27-Янв-2018 00:08 (спустя 14 часов)
Эта часть полное собрание отходов, как на это дают еще деньги?
Все системы рука пожатий и тд перечеркнуты одной фразой.
Похищает пингвина, чтобы выпендриться перед бабой. Ургант резко превращается в гавнюка.
Ощущения праздника выветрилось с этим фильмом
Профиль  ЛС 
Matalik2

Стаж: 12 лет
Сообщений: 8
Откуда: Уфа

Создавать темы Matalik2 написал(а)
28-Янв-2018 12:59 (спустя 1 день 12 часов)
когда же это прекратиться...
Профиль  ЛС 
kalyamov1

Стаж: 11 лет
Сообщений: 15
Откуда: ??

Создавать темы kalyamov1 написал(а)
28-Янв-2018 23:14 (спустя 10 часов)
"Елки" пробили дно
Профиль  ЛС 
Sazon866

Стаж: 12 лет
Сообщений: 4
Откуда: Уфа

Создавать темы Sazon866 написал(а)
04-Фев-2018 21:49 (спустя 6 дней)
хороший добрый фильм, хоть и не много есть бредоватого.
Профиль  ЛС 
Показать сообщения:     

Вы не можете начинать темы
Вы не можете отвечать на сообщения
Вы не можете редактировать свои сообщения
Вы не можете удалять свои сообщения
Вы не можете голосовать в опросах
Вы не можете прикреплять файлы к сообщениям
Вы не можете скачивать файлы

Текущее время: 22-Янв 11:07
Часовой пояс: UTC + 5