Гранд тур / The Grand Tour (2 сезон: 1-11 серия из 11) (Фил Чурчуорд, Кит Линч Робинсон, Гэвин Уайтхед) [2017, Авто-шоу, WEBRip 1080p][AlexFilm]

Автор Сообщение
LoyoL ®

Стаж: 3 года
Сообщений: 8

Создавать темы LoyoL ® написал(а)
25-Дек-2017 18:53
Гранд Тур / The Grand Tour-Год выпуска: 2017
Страна: Великобритания
Жанр: Авто-шоу
Продолжительность: 01:10:00
Сезон: 2 / Серии: 11 из 11
Перевод: Профессиональный (многоголосый, закадровый) AlexFilm
Субтитры: Отсутствуют-Режиссер: Фил Чурчуорд, Кит Линч Робинсон, Гэвин Уайтхед
В ролях: Джереми Кларксон, Ричард Хаммонд, Джеймс Мэй-Описание: "Гранд Тур" — это новое автомобильное телешоу, созданное бывшими ведущими Top Gear — Джереми Кларксоном, Ричардом Хаммондом и Джеймсом Мэйем. Зрителей ждут автомобильные обзоры, приключения по всему миру, встречи со знаменитостями и юмор, который является непременным атрибутом каждого выпуска.-Качество: WEBRip 1080p
Формат: MKV
Видео кодек: AVC
Аудио кодек: AC3-Видео: 1920x1080 at 25,000 fps, MPEG-4 AVC, ~11300 kbps avg-Аудио:
Русский: AC3, 48000 Hz, 6 ch, ~384 Kbps - Многоголосый закадровый (AlexFilm)
English: AC3, 48000 Hz, 6 ch, ~384 Kbps - Оригинал-

MediaInfo

Общее
Уникальный идентификатор :  208214407178839137248894722871723502050 (0x9CA4A2DBA26DAE33ABBE0E9020FF29E2)
Полное имя :  D:\Downloads\The Grand Tour - Season 2 (AlexFilm) WEBRip 1080p\The.Grand.Tour.s02e01.WEBRip.1080p.Rus.Eng.AlexFilm.mkv
Формат :  Matroska
Версия формата :  Version 4 / Version 2
Размер файла :  6,01 Гбайт
Продолжительность :  1 ч. 10 м.
Режим общего битрейта :  Переменный
Общий поток :  12,3 Мбит/сек
Дата кодирования :  UTC 2017-12-09 17:19:26
Программа кодирования :  mkvmerge v6.1.0 ('Old Devil') built on Mar 4 2013 09:10:42
Библиотека кодирования :  libebml v1.3.0 + libmatroska v1.4.0
Видео
Идентификатор :  1
Формат :  AVC
Формат/Информация :  Advanced Video Codec
Профиль формата :  High@L4
Настройки формата :  CABAC / 4 Ref Frames
Параметр CABAC формата :  Да
Параметр RefFrames формата :  4 кадра
Идентификатор кодека :  V_MPEG4/ISO/AVC
Продолжительность :  1 ч. 10 м.
Вид битрейта :  Переменный
Битрейт :  11,3 Мбит/сек
Максимальный битрейт :  15,0 Мбит/сек
Ширина :  1920 пикселей
Высота :  1080 пикселей
Соотношение сторон :  16:9
Режим частоты кадров :  Постоянный
Частота кадров :  25,000 кадров/сек
Цветовое пространство :  YUV
Субдискретизация насыщенности :  4:2:0
Битовая глубина :  8 бит
Тип развёртки :  Прогрессивная
Бит/(Пиксели*Кадры) :  0.217
Размер потока :  5,51 Гбайт (92%)
Язык :  English
Default :  Да
Forced :  Нет
Цветовой диапазон :  Limited
Основные цвета :  BT.709
Характеристики трансфера :  BT.709
Коэффициенты матрицы :  BT.709
Аудио #1
Идентификатор :  2
Формат :  AC-3
Формат/Информация :  Audio Coding 3
Параметр Endianness формата :  Big
Идентификатор кодека :  A_AC3
Продолжительность :  1 ч. 10 м.
Вид битрейта :  Постоянный
Битрейт :  384 Кбит/сек
Каналы :  6 каналов
Расположение каналов :  Front: L C R, Side: L R, LFE
Частота :  48,0 КГц
Частота кадров :  31,250 кадров/сек (1536 SPF)
Битовая глубина :  16 бит
Метод сжатия :  С потерями
Размер потока :  192 Мбайт (3%)
Заголовок :  DD 5.1 AlexFilm
Язык :  Russian
ServiceKind/String :  Complete Main
Default :  Да
Forced :  Нет
Аудио #2
Идентификатор :  3
Формат :  AC-3
Формат/Информация :  Audio Coding 3
Параметр Endianness формата :  Big
Идентификатор кодека :  A_AC3
Продолжительность :  1 ч. 10 м.
Вид битрейта :  Постоянный
Битрейт :  384 Кбит/сек
Каналы :  6 каналов
Расположение каналов :  Front: L C R, Side: L R, LFE
Частота :  48,0 КГц
Частота кадров :  31,250 кадров/сек (1536 SPF)
Битовая глубина :  16 бит
Метод сжатия :  С потерями
Размер потока :  192 Мбайт (3%)
Заголовок :  Eng
Язык :  English
ServiceKind/String :  Complete Main
Default :  Нет
Forced :  Нет

Скриншоты



Последний раз редактировалось: LoyoL (2018-02-19 18:45), всего редактировалось 10 раз(а)
Профиль  ЛС 
singapurhik1

Стаж: 4 года 3 месяца
Сообщений: 9
Откуда: уфа

Создавать темы singapurhik1 написал(а)
25-Дек-2017 19:51 (спустя 58 минут)
поздно выкладываешь
Профиль  ЛС 
LoyoL ®

Стаж: 3 года
Сообщений: 8

Создавать темы LoyoL ® написал(а)
07-Янв-2018 22:57 (спустя 13 дней)
07.01.2018 - Торрент обновлён! Добавлены 4,5 серии.
Профиль  ЛС 
LoyoL ®

Стаж: 3 года
Сообщений: 8

Создавать темы LoyoL ® написал(а)
14-Янв-2018 22:56 (спустя 6 дней)
14.01.2018 - Торрент обновлён! Добавлена 6 серия.
Профиль  ЛС 
LoyoL ®

Стаж: 3 года
Сообщений: 8

Создавать темы LoyoL ® написал(а)
25-Янв-2018 13:17 (спустя 10 дней)
25.01.2018 - Торрент обновлён! Добавлена 7 серия.
Профиль  ЛС 
LoyoL ®

Стаж: 3 года
Сообщений: 8

Создавать темы LoyoL ® написал(а)
27-Янв-2018 17:44 (спустя 2 дня 4 часа)
27.01.2018 - Торрент обновлён! Добавлена 8 серия.
Профиль  ЛС 
LoyoL ®

Стаж: 3 года
Сообщений: 8

Создавать темы LoyoL ® написал(а)
06-Фев-2018 13:35 (спустя 9 дней)
06.02.2018 - Торрент обновлён! Добавлена 9 серия.
Профиль  ЛС 
Cooper2

Стаж: 10 лет
Сообщений: 13

Создавать темы Cooper2 написал(а)
07-Фев-2018 19:14 (спустя 1 день 5 часов)
Они вернулись под другим названием?
Профиль  ЛС 
LoyoL ®

Стаж: 3 года
Сообщений: 8

Создавать темы LoyoL ® написал(а)
10-Фев-2018 23:48 (спустя 3 дня)
10.02.2018 - Торрент обновлён! Добавлена 10 серия.
Профиль  ЛС 
LoyoL ®

Стаж: 3 года
Сообщений: 8

Создавать темы LoyoL ® написал(а)
19-Фев-2018 18:47 (спустя 8 дней)
19.02.2018 - Торрент обновлён! Добавлена 11 серия. Релиз завершен!
Профиль  ЛС 
Показать сообщения:     

Вы не можете начинать темы
Вы не можете отвечать на сообщения
Вы не можете редактировать свои сообщения
Вы не можете удалять свои сообщения
Вы не можете голосовать в опросах
Вы не можете прикреплять файлы к сообщениям
Вы не можете скачивать файлы

Текущее время: 28-Мар 13:37
Часовой пояс: UTC + 5