(Downtempo / Acoustic) Above & Beyond - Acoustic (Anjunabeats / Ultra Records) CD - 2014, FLAC (tracks+.cue), lossless

Автор Сообщение
Stalus ®

Стаж: 11 лет
Сообщений: 41940
Откуда: Amsterdam

Создавать темы Stalus ® написал(а)
31-Авг-2014 16:06
Above & Beyond - Acoustic


Жанр: downtempo / acoustic
Производитель релиза: Anjunabeats / Ultra Records
Год издания: 2014
Аудиокодек: FLAC (*.flac)
Тип рипа: tracks
Битрейт аудио: 320 kbps
Продолжительность: 00:59:01

Треклист:
01. Above & Beyond - Miracle (04:54)
02. Above & Beyond - You Got To Go (05:38)
03. Above & Beyond - Satellite / Stealing Time (05:05)
04. Above & Beyond - Thing Called Love (04:20)
05. Above & Beyond - Can't Sleep (04:40)
06. Above & Beyond - Sun & Moon (04:48)
07. Above & Beyond - Good For Me (06:04)
08. Above & Beyond - Sirens Of The Sea (04:50)
09. Above & Beyond - Love Is Not Enough (05:31)
10. Above & Beyond - On A Good Day (04:23)
11. Above & Beyond - Alone Tonight (04:37)
12. Above & Beyond - Making Plans (04:24)


Код:

Exact Audio Copy V1.0 beta 3 from 29. August 2011

EAC extraction logfile from 27. January 2014, 16:04

Above & Beyond / Acoustic

Used drive  : HL-DT-STDVDRAM GSA-4163B   Adapter: 1  ID: 0

Read mode               : Secure
Utilize accurate stream : Yes
Defeat audio cache      : Yes
Make use of C2 pointers : No

Read offset correction                      : 667
Overread into Lead-In and Lead-Out          : No
Fill up missing offset samples with silence : Yes
Delete leading and trailing silent blocks   : No
Null samples used in CRC calculations       : Yes
Used interface                              : Native Win32 interface for Win NT & 2000
Gap handling                                : Appended to previous track

Used output format              : User Defined Encoder
Selected bitrate                : 1024 kBit/s
Quality                         : High
Add ID3 tag                     : No
Command line compressor         : C:\Program Files (x86)\Exact Audio Copy\FLAC\FLAC.EXE
Additional command line options : -8 -V -T "ARTIST=%artist%" -T "TITLE=%title%" -T "ALBUM=%albumtitle%" -T "DATE=%year%" -T "TRACKNUMBER=%tracknr%" -T "GENRE=%genre%" -T "PERFORMER=%albuminterpret%" -T "COMPOSER=%composer%" %haslyrics%--tag-from-file=LYRICS="%lyricsfile%"%haslyrics% -T "ALBUMARTIST=%albumartist%" -T "DISCNUMBER=%cdnumber%" -T "TOTALDISCS=%totalcds%" -T "TOTALTRACKS=%numtracks%" -T "COMMENT=%comment%" %source% -o %dest%

TOC of the extracted CD

     Track |   Start  |  Length  | Start sector | End sector
    ---------------------------------------------------------
        1  |  0:00.00 |  4:54.51 |         0    |    22100   
        2  |  4:54.51 |  5:38.45 |     22101    |    47495   
        3  | 10:33.21 |  5:04.74 |     47496    |    70369   
        4  | 15:38.20 |  4:20.63 |     70370    |    89932   
        5  | 19:59.08 |  4:40.28 |     89933    |   110960   
        6  | 24:39.36 |  4:48.02 |    110961    |   132562   
        7  | 29:27.38 |  6:04.30 |    132563    |   159892   
        8  | 35:31.68 |  4:50.54 |    159893    |   181696   
        9  | 40:22.47 |  5:31.42 |    181697    |   206563   
       10  | 45:54.14 |  4:23.48 |    206564    |   226336   
       11  | 50:17.62 |  4:37.23 |    226337    |   247134   
       12  | 54:55.10 |  4:24.45 |    247135    |   266979   

Track  1

     Filename E:\EAC\Above & Beyond - Acoustic (2014) [FLAC]\01 - Miracle.wav

     Pre-gap length  0:00:02.00

     Peak level 96.5 %
     Extraction speed 4.5 X
     Track quality 100.0 %
     Test CRC A21C9B99
     Copy CRC A21C9B99
     Track not present in AccurateRip database
     Copy OK

Track  2

     Filename E:\EAC\Above & Beyond - Acoustic (2014) [FLAC]\02 - You Got To Go.wav

     Peak level 94.8 %
     Extraction speed 5.0 X
     Track quality 100.0 %
     Test CRC EC4576AB
     Copy CRC EC4576AB
     Track not present in AccurateRip database
     Copy OK

Track  3

     Filename E:\EAC\Above & Beyond - Acoustic (2014) [FLAC]\03 - Satellite - Stealing Time.wav

     Peak level 97.2 %
     Extraction speed 5.9 X
     Track quality 100.0 %
     Test CRC 5FCC9400
     Copy CRC 5FCC9400
     Track not present in AccurateRip database
     Copy OK

Track  4

     Filename E:\EAC\Above & Beyond - Acoustic (2014) [FLAC]\04 - Thing Called Love.wav

     Peak level 95.3 %
     Extraction speed 4.4 X
     Track quality 100.0 %
     Test CRC E104423D
     Copy CRC E104423D
     Track not present in AccurateRip database
     Copy OK

Track  5

     Filename E:\EAC\Above & Beyond - Acoustic (2014) [FLAC]\05 - Can't Sleep.wav

     Peak level 95.3 %
     Extraction speed 6.2 X
     Track quality 100.0 %
     Test CRC 72261036
     Copy CRC 72261036
     Track not present in AccurateRip database
     Copy OK

Track  6

     Filename E:\EAC\Above & Beyond - Acoustic (2014) [FLAC]\06 - Sun & Moon.wav

     Peak level 94.5 %
     Extraction speed 6.7 X
     Track quality 100.0 %
     Test CRC 89224799
     Copy CRC 89224799
     Track not present in AccurateRip database
     Copy OK

Track  7

     Filename E:\EAC\Above & Beyond - Acoustic (2014) [FLAC]\07 - Good For Me.wav

     Peak level 94.6 %
     Extraction speed 7.3 X
     Track quality 100.0 %
     Test CRC 68EABC14
     Copy CRC 68EABC14
     Track not present in AccurateRip database
     Copy OK

Track  8

     Filename E:\EAC\Above & Beyond - Acoustic (2014) [FLAC]\08 - Sirens Of The Sea.wav

     Peak level 94.5 %
     Extraction speed 7.9 X
     Track quality 100.0 %
     Test CRC E8028509
     Copy CRC E8028509
     Track not present in AccurateRip database
     Copy OK

Track  9

     Filename E:\EAC\Above & Beyond - Acoustic (2014) [FLAC]\09 - Love Is Not Enough.wav

     Peak level 94.9 %
     Extraction speed 7.7 X
     Track quality 100.0 %
     Test CRC 5173E993
     Copy CRC 5173E993
     Track not present in AccurateRip database
     Copy OK

Track 10

     Filename E:\EAC\Above & Beyond - Acoustic (2014) [FLAC]\10 - On A Good Day.wav

     Peak level 94.4 %
     Extraction speed 8.1 X
     Track quality 100.0 %
     Test CRC 9CF282C2
     Copy CRC 9CF282C2
     Track not present in AccurateRip database
     Copy OK

Track 11

     Filename E:\EAC\Above & Beyond - Acoustic (2014) [FLAC]\11 - Alone Tonight.wav

     Peak level 94.7 %
     Extraction speed 8.3 X
     Track quality 100.0 %
     Test CRC CCBF65FC
     Copy CRC CCBF65FC
     Track not present in AccurateRip database
     Copy OK

Track 12

     Filename E:\EAC\Above & Beyond - Acoustic (2014) [FLAC]\12 - Making Plans.wav

     Peak level 94.4 %
     Extraction speed 8.2 X
     Track quality 99.9 %
     Test CRC E215C58A
     Copy CRC E215C58A
     Track not present in AccurateRip database
     Copy OK

None of the tracks are present in the AccurateRip database

No errors occurred

End of status report

---- CUETools DB Plugin V2.1.3

[CTDB TOCID: P8ntlYp_T3ArcXkveuPw0e0A9ak-] found, Submit result: already submitted
[29382dab] (1/1) Accurately ripped

==== Log checksum E7DBE64A277E02CDE2E28E659F4F620745F2BF04496AACF179320FCBFB646151 ====
Профиль  ЛС 
Показать сообщения:     

Вы не можете начинать темы
Вы не можете отвечать на сообщения
Вы не можете редактировать свои сообщения
Вы не можете удалять свои сообщения
Вы не можете голосовать в опросах
Вы не можете прикреплять файлы к сообщениям
Вы не можете скачивать файлы

Текущее время: 20-Фев 05:21
Часовой пояс: UTC + 5