Симпсоны / The Simpsons / Сезон 25, 1-17 (22) / Matt Groening (Мэтт Гроунинг) [2013 г., мультфильм, комедия, семейный, WEB-DLRip] (VO production) + original + subs (rus, eng)

Автор Сообщение
Irinochka20 ®

Стаж: 9 лет 9 месяцев
Сообщений: 7

Создавать темы Irinochka20 ® написал(а)
29-Апр-2014 22:15
Симпсоны ba The Simpsons ba Сезон 25 (1-17 серии из 22)

Год выпуска: 2013
Страна: США
Жанр: мультфильм, комедия, семейный
Продолжительность: каждая серия около 21 мин.
Перевод: Профессиональный (многоголосый, закадровый) VO production

Режиссер: Мэтт Гроунинг / Matt Groening

Роли озвучивают:
Дэн Кастелланета, Джулия Кавнер, Нэнси Картрайт, Ярдли Смит, Хэнк Азариа, Гарри Ширер

Описание: Симпсоны еще живы, и готовы радовать нас новыми сериями почти каждую неделю! Исполнительный продюсер Эл Джин испугал всех фанатов мультсериала Симпсоны, сообщив о том, что в 25-м сезоне шоу умрет akодин из регулярных персонажей сериала.

Доп. информация:
Дэн Кастелланета озвучивает Гомера Симпсона, его отца Эйба и Клоуна Красти.
Джулия Кавнер озвучивает Мардж Симпсон, её сестер Пэтти и Сельму и их мать Жаклин.
Нэнси Картрайт озвучивает Барта Симпсона, Мэгги и многих других.
Ярдли Смит озвучивает только Лизу.
Хэнк Азариа озвучивает Мо Сизлак, Клэнси Виггам и Апу Нахасапимапетилон.
Гарри Ширер озвучил мистера Бёрнса, Смитерса, директора Скиннера и многих других.
1. Гомерлэнд (Homerland)
2. Дом ужасов 24 (Treehouse of Horror XXIV)
3. Четыре сожаления и похороны (Four Regrettings and a Funeral)
4. Живём Лишь Раз (YOLO)
5. Роды (Labor Pains)
6. Ребёнок в порядке (The Kid Is All Right)
7. Жёлтая уловка (Yellow Subterfuge)
8. Белый рождественский блюз (White Christmas Blues)
9. Соприте эту серию (Steal This Episode)
10. Замужем за бесформенной массой (Married to the Blob)
11. Очки в Большом Городе (Specs and the City)
12. Диггс (Diggs)
13. Человек, который многое в себе изменил (The Man Who Grew Too Much)
14. Содержание его зимой (The Winter of His Content)
15. Война искусства (The War of Art)
16. Жизнь судьи не для тебя (You Don’t Have to Live Like a Referee)
17. Лукас (Luca$)
C:\Downloads\The Simpsons.Season 25\The Simpsons.s25e01.avi
General
Complete name : C:\Downloads\The Simpsons.Season 25\The Simpsons.s25e01.avi
Format : AVI
Format/Info : Audio Video Interleave
File size : 333 MiB
Duration : 21mn 11s
Overall bit rate : 2 198 Kbps
Writing application : VirtualDubMod 1.5.10.2 (build 2540/release)
Writing library : VirtualDubMod build 2540/release
Video #0
ID : 0
Format : MPEG-4 Visual
Format profile : Advanced Simple@L5
Format settings, BVOP : 1
Format settings, QPel : No
Format settings, GMC : No warppoints
Format settings, Matrix : Default (MPEG)
Codec ID : XVID
Codec ID/Hint : XviD
Duration : 21mn 11s
Bit rate : 1 800 Kbps
Width : 720 pixels
Height : 400 pixels
Display aspect ratio : 16:9
Frame rate : 23.976 fps
Color space : YUV
Chroma subsampling : 4:2:0
Bit depth : 8 bits
Scan type : Progressive
Compression mode : Lossy
Bits/(Pixel*Frame) : 0.261
Stream size : 273 MiB (82%)
Writing library : XviD 65
Audio #1
ID : 1
Format : AC-3
Format/Info : Audio Coding 3
Mode extension : CM (complete main)
Format settings, Endianness : Big
Codec ID : 2000
Duration : 21mn 11s
Bit rate mode : Constant
Bit rate : 192 Kbps
Channel count : 2 channels
Channel positions : Front: L R
Sampling rate : 48.0 KHz
Bit depth : 16 bits
Compression mode : Lossy
Stream size : 29.1 MiB (9%)
Alignment : Split accross interleaves
Interleave, duration : 42 ms (1.00 video frame)
Interleave, preload duration : 500 ms
Audio #2
ID : 2
Format : AC-3
Format/Info : Audio Coding 3
Mode extension : CM (complete main)
Format settings, Endianness : Big
Codec ID : 2000
Duration : 21mn 11s
Bit rate mode : Constant
Bit rate : 192 Kbps
Channel count : 2 channels
Channel positions : Front: L R
Sampling rate : 48.0 KHz
Bit depth : 16 bits
Compression mode : Lossy
Stream size : 29.1 MiB (9%)
Alignment : Split accross interleaves
Interleave, duration : 42 ms (1.00 video frame)
Interleave, preload duration : 500 ms
Качество: WEB-DLRip
Формат: AVI
Видео кодек: XviD
Аудио кодек: AC3
Видео: 720x400 (1.80:1), 23.976 fps, XviD build 65 ~1800 kbps avg, 0.29 bit/pixel
Аудио Rus: 48 kHz, AC3 Dolby Digital, 2/0 (L,R) ch, ~192 kbps (VO production)
Аудио Eng: 48 kHz, AC3 Dolby Digital, 2/0 (L,R) ch, ~192 kbps ab
Субтитры: Русские, Английские
Профиль  ЛС 
Показать сообщения:     

Вы не можете начинать темы
Вы не можете отвечать на сообщения
Вы не можете редактировать свои сообщения
Вы не можете удалять свои сообщения
Вы не можете голосовать в опросах
Вы не можете прикреплять файлы к сообщениям
Вы не можете скачивать файлы

Текущее время: 21-Ноя 00:06
Часовой пояс: UTC + 5