(Jazz ,Vocal Jazz) VA - Jazz Relax Cafe - 2007, FLAC (image + .cue), lossless

Автор Сообщение
murkkin ®

Стаж: 10 лет
Сообщений: 67
Откуда: Уфа

Создавать темы murkkin ® написал(а)
08-Авг-2012 10:38
VA - Jazz Relax Cafe

Страна: Ukraine
Жанр: Jazz ,Vocal Jazz
Год выпуска: 2007
Формат: FLAC (image + .cue)
Битрейт аудио: lossless
Продолжительность: 01:13:26
Трэклист:
1. Jeff Golub - On The Beach (04:42)
2. Al Jarreau - Feels Like Heaven (04:37)
3. Chris Botti - Irresistible Bliss (05:00)
4. Meshell Ndegeocello feat. Cassandra Wilson - The Chosen (06:37)
5. David Sunborn - Isn't She Lovely (03:18)
6. Natalie Cole - Tell Me All About It (04:12)
7. Paul Brown - Wes' Cost Swing (04:33)
8. George Duke - Feel (Spacek mix) (04:29)
9. Gerald Albright - I Need You (03:54)
10. JK - In My Bedroom (05:54)
11. Cirque Du Soleil - El Pendulo (Fenomenon 'Northern Comfort Mix') (04:30)
12. Lee Ritenour - Road Song (04:46)
13. Dinah Washington - You're Crying (03:31)
14. Peter Herbolzheimer Rhythm Combination & Brass - The Ballad Of The Sad Young Man (Remix) (05:11)
15. Regina Carter - Blue Rose (02:52)
16. The Miles Davis Quintet - Your're My Everything (05:20)
Exact Audio Copy V0.99 prebeta 5 from 4. May 2009

Отчёт EAC об извлечении, выполненном 10. октября 2009, 22:07

Va / Jazz Relax Cafe

Дисковод: TSSTcorpDVD-ROM SH-D162D Adapter: 0 ID: 0

Режим чтения : Достоверность
Использование точного потока : Да
Отключение кэша аудио : Да
Использование указателей C2 : Нет

Коррекция смещения при чтении : 6
Способность читать области Lead-in и Lead-out : Нет
Заполнение пропущенных сэмплов тишиной : Да
Удаление блоков с тишиной в начале и конце : Нет
При вычислениях CRC использовались нулевые сэмплы : Да
Интерфейс : Встроенный Win32-интерфейс для Win NT/2000

Выходной формат : Пользовательский кодировщик
Выбранный битрейт : 768 kBit/s
Качество : Высокий
Добавление ID3-тэга : Нет
Утилита сжатия : C:\Program Files\Exact Audio Copy\Flac\flac.exe
Дополнительные параметры : -8 -V %s

TOC извлечённого CD

Трек | Старт | Длительность | Начальный сектор | Конечный сектор
---------------------------------------------------------------------
1 | 0:00.00 | 4:42.25 | 0 | 21174
2 | 4:42.25 | 4:37.10 | 21175 | 41959
3 | 9:19.35 | 5:00.15 | 41960 | 64474
4 | 14:19.50 | 6:36.61 | 64475 | 94235
5 | 20:56.36 | 3:17.62 | 94236 | 109072
6 | 24:14.23 | 4:12.13 | 109073 | 127985
7 | 28:26.36 | 4:32.50 | 127986 | 148435
8 | 32:59.11 | 4:29.62 | 148436 | 168672
9 | 37:28.73 | 3:53.48 | 168673 | 186195
10 | 41:22.46 | 5:53.30 | 186196 | 212700
11 | 47:16.01 | 4:30.57 | 212701 | 233007
12 | 51:46.58 | 4:46.05 | 233008 | 254462
13 | 56:32.63 | 3:31.11 | 254463 | 270298
14 | 60:03.74 | 5:10.09 | 270299 | 293557
15 | 65:14.08 | 2:52.50 | 293558 | 306507
16 | 68:06.58 | 5:19.41 | 306508 | 330473

Характеристики диапазона извлечения и сообщения об ошибках

Выбранный диапазон

Имя файла F:\Reliz Tor.ru\Jazz Relax Cafe\Sound\Va - Jazz Relax Cafe.wav

Пиковый уровень 100.0 %
Качество диапазона 100.0 %
CRC теста 2599CC92
CRC копии 2599CC92
Копирование... OK

Ошибок не произошло

AccurateRip: сводка
Трек 1 нет в базе данных
Трек 2 нет в базе данных
Трек 3 нет в базе данных
Трек 4 нет в базе данных
Трек 5 нет в базе данных
Трек 6 нет в базе данных
Трек 7 нет в базе данных
Трек 8 нет в базе данных
Трек 9 нет в базе данных
Трек 10 нет в базе данных
Трек 11 нет в базе данных
Трек 12 нет в базе данных
Трек 13 нет в базе данных
Трек 14 нет в базе данных
Трек 15 нет в базе данных
Трек 16 нет в базе данных
Ни одного трека нет в базе AccurateRip

Конец отчёта
Профиль  ЛС 
Показать сообщения:     

Вы не можете начинать темы
Вы не можете отвечать на сообщения
Вы не можете редактировать свои сообщения
Вы не можете удалять свои сообщения
Вы не можете голосовать в опросах
Вы не можете прикреплять файлы к сообщениям
Вы не можете скачивать файлы

Текущее время: 20-Фев 04:54
Часовой пояс: UTC + 5