[SERIAL] +100500 (Максим Голополосов) (68 серий) [2010 - 2011, Юмор, приколы, WEBRip] [3GP, 320x]

Автор Сообщение
игорёшка ®

Стаж: 11 лет
Сообщений: 10
Откуда: Уфа

Создавать темы игорёшка ® написал(а)
07-Янв-2012 11:27
+100500


Год выпуска: 2010
Страна: Россия
Жанр: Юмор, приколы
Продолжительность: ~5 мин

Режиссер: Максим Голополосов

Описание: Недавно появилось русскоязычное шоу «+100500». Максим, он же AdamThomasMoran не стал изобретать велосипед, а просто скопировал популярного зарубежного коллегу Ray William Johnson и даже не пытается это скрыть. Впрочем, его зарубежный прототип тоже не делает абсолютно ничего своего — он всего лишь комментирует популярные сетевые ролики, с бешеной интенсивностью мельтеша перед камерой и сыпля нецензурными выражениями.

Внимание: Присутствует ненормативная лексика

Качество: WEBRip
Формат: 3GP
Видео кодек: DivX
Аудио кодек: AAC

Видео: MPEG-4 Visual, 320x240 (4:3), 320х176 (16:9), 320х232 (1.379) (подробнее в списке серий) ~350 kbps, 25.000fps.
Аудио: AAC, 44.1 KHz, 2 channels, 96.0 Kbps.
#1 +100500 - Разборка 320х240
#2 +100500 - Голубые в Кировске 320х176
#3 +100500 - Вот Это Прикол 320х240
#4 +100500 - Потерял Лёху 320х240
#5 +100500 - Сладенький 320х240
#6 +100500 - Элегантный 320х240
#7 +100500 - Бортмеханик 320х240
#8 +100500 - Борис 320х240
#9 +100500 - Дирижабль, Ага! 320х176
#10 +100500 - Дудка и Трубник 320х232
#11 +100500 - Кандибобер 320х176
#12 +100500 - Кудесник 320х176
#13 +100500 - Санаторий Сатаны 320х176
#14 +100500 - Оба Под Хмурым 320х176
#15 +100500 - Индийское Кино 320х176
#16 +100500 - Очень Новогодний Эпизод 320х176
#17 +100500 - В Стекло Не Попади 320х176
#18 +100500 - Король Аськи 320х176
#19 +100500 - Как Соблазнить Парня 320х176
#20 +100500 - Я Въезжаю В Стройку 320х176
#21 +100500 - Член 320х176
#22 +100500 - Малиновый Звон 320х176
#23 +100500 - Дети Цветов 320х176
#24 +100500 - Я Свободен 320х176
#25 +100500 - Поздравление 320х176
#26 +100500 - Матрица 320х176
#27 +100500 - Еду Я На Родину 320х176
#28 +100500 - Бредор 320х176
#29 +100500 - Широкую На Широкую 320х176
#30 +100500 - Хрюшка С Подогревом 320х176
#31 +100500 - Трехочковый 320х176
#32 +100500 - Лох! Пидр! 320х176
#33 +100500 - Мальчик и Мячик 320х176
#34 +100500 - Мега Пати 320х176
#35 +100500 - Сатисфэкшн 320х176
#36 +100500 - Супер Птица 320х176
#37 +100500 - Мы Их Виебали 320х176
#38 +100500 - Криминальное Чтиво 320х176
#39 +100500 - Плохой Парень 320х176
#40 +100500 - Бобёр Тусовщик 320х176
#41 +100500 - Смэкмайбичап 320х176
#42 +100500 - Мужики и Бревно 320х176
#44 +100500 - Репортёр 320х176
#45 +100500 - Спайдермен 320х176
#47 +100500 - Это Круто 320х176
#48 +100500 - Пожалели 320х176
#49 +100500 - Лучшее Интервью 320х176
#50 +100500 - Снуп Дог 320х176
#51 +100500 - Постанова 320х176
#52 +100500 - Повторюшка, Повторюшка 320х176
#53 +100500 - Какашки 320х176
#54 +100500 - Эволюция 320х176
#55 +100500 - Уникальный Человек 320х176
#56 +100500 - Краб 320х176
#57 +100500 - Убийца Танцпола 320х176
#58 +100500 - Пикничок 320х176
#59 +100500 - Каскадёр 320х176
#60 +100500 - Индийское Кино 2.0 320х176
#61 +100500 - Свадьба 320х176
#62 +100500 - Брусок 320х176
#63 +100500 - Вери Вандефул 320х176
#64 +100500 - Секретная Формула 320х176
#65 +100500 - ХОУЛИ ФАКИН ЩИТ 320х176
#66 +100500 - Ёлочки и Водочка 320х176
#67 +100500 - Чудо-Сиськи 320х176
#68 +100500 - Тачдаун 320х176
General

Format : MPEG-4
Format profile : 3GPP Media Release 5
Codec ID : 3gp5
File size : 13.1 MiB
Duration : 4mn 6s
Overall bit rate : 447 Kbps
Encoded date : UTC 2011-12-20 12:52:42
Tagged date : UTC 2011-12-20 12:52:42

Video
ID : 1
Format : MPEG-4 Visual
Format profile : Simple@L1
Format settings, BVOP : No
Format settings, QPel : No
Format settings, GMC : No warppoints
Format settings, Matrix : Default (H.263)
Codec ID : 20
Duration : 4mn 6s
Bit rate mode : Variable
Bit rate : 349 Kbps
Maximum bit rate : 649 Kbps
Width : 320 pixels
Height : 240 pixels
Display aspect ratio : 4:3
Frame rate mode : Constant
Frame rate : 25.000 fps
Color space : YUV
Chroma subsampling : 4:2:0
Bit depth : 8 bits
Scan type : Progressive
Compression mode : Lossy
Bits/(Pixel*Frame) : 0.182
Stream size : 10.3 MiB (78%)
Writing library : Lavc53.16.0
Encoded date : UTC 2011-12-20 12:52:42
Tagged date : UTC 2011-12-20 12:52:42

Audio
ID : 2
Format : AAC
Format/Info : Advanced Audio Codec
Format profile : LC
Codec ID : 40
Duration : 4mn 6s
Bit rate mode : Variable
Bit rate : 96.0 Kbps
Maximum bit rate : 113 Kbps
Channel(s) : 2 channels
Channel positions : Front: L R
Sampling rate : 44.1 KHz
Compression mode : Lossy
Stream size : 2.79 MiB (21%)
Encoded date : UTC 2011-12-20 12:52:42
Tagged date : UTC 2011-12-20 12:52:42
General
Format : MPEG-4
Format profile : 3GPP Media Release 5
Codec ID : 3gp5
File size : 13.2 MiB
Duration : 4mn 8s
Overall bit rate : 447 Kbps
Encoded date : UTC 2011-12-20 12:57:05
Tagged date : UTC 2011-12-20 12:57:05

Video
ID : 1
Format : MPEG-4 Visual
Format profile : Simple@L1
Format settings, BVOP : No
Format settings, QPel : No
Format settings, GMC : No warppoints
Format settings, Matrix : Default (H.263)
Codec ID : 20
Duration : 4mn 8s
Bit rate mode : Variable
Bit rate : 350 Kbps
Maximum bit rate : 710 Kbps
Width : 320 pixels
Height : 176 pixels
Display aspect ratio : 16:9
Frame rate mode : Constant
Frame rate : 25.000 fps
Color space : YUV
Chroma subsampling : 4:2:0
Bit depth : 8 bits
Scan type : Progressive
Compression mode : Lossy
Bits/(Pixel*Frame) : 0.249
Stream size : 10.4 MiB (78%)
Writing library : Lavc53.16.0
Encoded date : UTC 2011-12-20 12:57:05
Tagged date : UTC 2011-12-20 12:57:05

Audio
ID : 2
Format : AAC
Format/Info : Advanced Audio Codec
Format profile : LC
Codec ID : 40
Duration : 4mn 8s
Bit rate mode : Variable
Bit rate : 96.0 Kbps
Maximum bit rate : 111 Kbps
Channel(s) : 2 channels
Channel positions : Front: L R
Sampling rate : 44.1 KHz
Compression mode : Lossy
Stream size : 2.81 MiB (21%)
Encoded date : UTC 2011-12-20 12:57:05
Tagged date : UTC 2011-12-20 12:57:05
General
Format : MPEG-4
Format profile : 3GPP Media Release 5
Codec ID : 3gp5
File size : 11.2 MiB
Duration : 3mn 29s
Overall bit rate : 449 Kbps
Encoded date : UTC 2011-12-20 13:23:07
Tagged date : UTC 2011-12-20 13:23:07

Video
ID : 1
Format : MPEG-4 Visual
Format profile : Simple@L1
Format settings, BVOP : No
Format settings, QPel : No
Format settings, GMC : No warppoints
Format settings, Matrix : Default (H.263)
Codec ID : 20
Duration : 3mn 29s
Bit rate mode : Variable
Bit rate : 351 Kbps
Maximum bit rate : 605 Kbps
Width : 320 pixels
Height : 232 pixels
Display aspect ratio : 1.379
Frame rate mode : Constant
Frame rate : 25.000 fps
Color space : YUV
Chroma subsampling : 4:2:0
Bit depth : 8 bits
Scan type : Progressive
Compression mode : Lossy
Bits/(Pixel*Frame) : 0.189
Stream size : 8.75 MiB (78%)
Writing library : Lavc53.16.0
Encoded date : UTC 2011-12-20 13:23:07
Tagged date : UTC 2011-12-20 13:23:07

Audio
ID : 2
Format : AAC
Format/Info : Advanced Audio Codec
Format profile : LC
Codec ID : 40
Duration : 3mn 29s
Bit rate mode : Variable
Bit rate : 96.0 Kbps
Maximum bit rate : 115 Kbps
Channel(s) : 2 channels
Channel positions : Front: L R
Sampling rate : 44.1 KHz
Compression mode : Lossy
Stream size : 2.38 MiB (21%)
Encoded date : UTC 2011-12-20 13:23:07
Tagged date : UTC 2011-12-20 13:23:07


Последний раз редактировалось: игорёшка (2012-01-18 18:50), всего редактировалось 5 раз(а)
Профиль  ЛС 
Azat-777

Стаж: 11 лет
Сообщений: 2105
Откуда: Russia

Создавать темы Azat-777 написал(а)
07-Янв-2012 19:20 (спустя 7 часов)
Повтор https://torrents-local.xyz/viewtopic.php?t=315491
Профиль  ЛС 
игорёшка ®

Стаж: 11 лет
Сообщений: 10
Откуда: Уфа

Создавать темы игорёшка ® написал(а)
08-Янв-2012 16:23 (спустя 21 час)
я написал ему он сюда должен постучать.. я свое обещание держу вот щас как раз обновил повую серию, да и медиаинфо там нету
Профиль  ЛС 
Azat-777

Стаж: 11 лет
Сообщений: 2105
Откуда: Russia

Создавать темы Azat-777 написал(а)
10-Янв-2012 17:00 (спустя 2 дня)
Автор той темы, видимо, в запое с 18 декабря. Поэтому раздача временно получает статус "временная"

игорёшка

Цитата:

Видео кодек: MPEG4
Неверно, судя по MI это DivX. Исправляйте

Цитата:

Видео: MPEG-4 Visual, 320x240, 320х176, 320х232
Перед каждый разрешением проставьте аспект видео
Профиль  ЛС 
niks5555

Стаж: 9 лет 6 месяцев
Сообщений: 5
Откуда: ??

Создавать темы niks5555 написал(а)
13-Янв-2012 22:00 (спустя 3 дня)
не фига не закачивается
Профиль  ЛС 
Azat-777

Стаж: 11 лет
Сообщений: 2105
Откуда: Russia

Создавать темы Azat-777 написал(а)
13-Янв-2012 22:07 (спустя 6 минут)
niks5555
Это естественно с таким-то рейтингом
Профиль  ЛС 
Dober_19

Стаж: 9 лет 2 месяца
Сообщений: 21
Откуда: Уфа (ДОК)

Создавать темы Dober_19 написал(а)
14-Янв-2012 17:39 (спустя 19 часов)
на blackberry 9000 пошло. спасибо. пересмотрел поржал доволен.
Профиль  ЛС 
ned2103

Стаж: 9 лет 5 месяцев
Сообщений: 1

Создавать темы ned2103 написал(а)
03-Фев-2012 17:23 (спустя 19 дней)
возражений по поводу раздачи нет
Профиль  ЛС 
Joad

Стаж: 9 лет 5 месяцев
Сообщений: 875
Откуда: Russia

Создавать темы Joad написал(а)
03-Фев-2012 18:13 (спустя 49 минут)
Предыдущую раздачу поглотил, автор не зыбывай обновлять раздачу.
Профиль  ЛС 
alh

Стаж: 10 лет
Сообщений: 3
Откуда: Уфа

Создавать темы alh написал(а)
06-Май-2012 00:13 (спустя 3 месяца 2 дня)
обновите уже серии. там уже много новых
Профиль  ЛС 
TvoiBro

Стаж: 28 дней
Сообщений: 2

Создавать темы TvoiBro написал(а)
23-Сен-2019 22:13 (спустя 7 лет 4 месяца)
раздайте, плииз)
Профиль  ЛС 
Показать сообщения:     

Вы не можете начинать темы
Вы не можете отвечать на сообщения
Вы не можете редактировать свои сообщения
Вы не можете удалять свои сообщения
Вы не можете голосовать в опросах
Вы не можете прикреплять файлы к сообщениям
Вы не можете скачивать файлы

Текущее время: 22-Окт 07:15
Часовой пояс: UTC + 5