(Blues/Rock) Chris Rea - The Platinum Collection - 2006, APE (image + .cue), lossless

Автор Сообщение
NeG-56 ®

Стаж: 11 лет
Сообщений: 40
Откуда: Russia

Создавать темы NeG-56 ® написал(а)
24-Фев-2010 19:28
Chris Rea - The Platinum Collection

Страна: Russia
Жанр: Blues/Rock
Год выпуска: 2006
Формат: APE (image + .cue)
Битрейт аудио: lossless
Продолжительность: 01:02:55
Трэклист:
01. The road to hell (Part 2) [0:04:27.07]
02. You can go your own way [0:03:54.57]
03. Josephine [0:04:29.72]
04. Lets dance [0:04:14.18]
05. Fool (if you think its over) [0:04:03.29]
06. The things lovers should do [0:03:34.63]
07. Wired to the moon [0:05:21.45]
08. I can hear your heartbeat [0:03:21.22]
09. On the beach [0:03:43.32]
10. Ace of hearts [0:04:54.28]
11. Julia [0:03:54.66]
12. Auberge [0:04:41.68]
13. Looking for the summer [0:04:57.41]
14. I dont know what it is but I love it [0:03:36.06]
15. Loves strange ways [0:03:40.08]
Exact Audio Copy V0.99 prebeta 5 from 4. May 2009

Отчёт EAC об извлечении, выполненном 4. июля 2009, 15:57

Chris Rea / The Platinum Collection

Дисковод: _NEC DVD_RW ND-4571A Adapter: 3 ID: 0

Режим чтения : Достоверность
Использование точного потока : Да
Отключение кэша аудио : Да
Использование указателей C2 : Нет

Коррекция смещения при чтении : 48
Способность читать области Lead-in и Lead-out : Нет
Заполнение пропущенных сэмплов тишиной : Да
Удаление блоков с тишиной в начале и конце : Нет
При вычислениях CRC использовались нулевые сэмплы : Да
Интерфейс : Встроенный Win32-интерфейс для Win NT/2000

Выходной формат : Внутренние WAV-операции
Формат сэмплов : 44.100 Гц; 16 бит; стерео

TOC извлечённого CD

Трек | Старт | Длительность | Начальный сектор | Конечный сектор
---------------------------------------------------------------------
1 | 0:00.00 | 4:27.07 | 0 | 20031
2 | 4:27.07 | 3:54.57 | 20032 | 37638
3 | 8:21.64 | 4:29.72 | 37639 | 57885
4 | 12:51.61 | 4:14.18 | 57886 | 76953
5 | 17:06.04 | 4:03.29 | 76954 | 95207
6 | 21:09.33 | 3:34.63 | 95208 | 111320
7 | 24:44.21 | 5:21.45 | 111321 | 135440
8 | 30:05.66 | 3:21.22 | 135441 | 150537
9 | 33:27.13 | 3:43.32 | 150538 | 167294
10 | 37:10.45 | 4:54.28 | 167295 | 189372
11 | 42:04.73 | 3:54.66 | 189373 | 206988
12 | 45:59.64 | 4:41.68 | 206989 | 228131
13 | 50:41.57 | 4:57.41 | 228132 | 250447
14 | 55:39.23 | 3:36.06 | 250448 | 266653
15 | 59:15.29 | 3:40.08 | 266654 | 283161

Характеристики диапазона извлечения и сообщения об ошибках

Выбранный диапазон

Имя файла F:Music_RIPChrisRea_ThePlatinumCollectionChris Rea - The Platinum Collection.wav

Пиковый уровень 100.0 %
Качество диапазона 100.0 %
CRC копии 5E2B0CC6
Копирование... OK

Ошибок не произошло

AccurateRip: сводка

Трек 1 точность не определена (достоверность 1) [30F14AC8], AccurateRip вернул [13722C30]
Трек 2 точность не определена (достоверность 1) [EF9224FE], AccurateRip вернул [FA97E6AE]
Трек 3 точность не определена (достоверность 1) [01283BBF], AccurateRip вернул [6CDFBF6F]
Трек 4 точность не определена (достоверность 1) [E54D968B], AccurateRip вернул [51BE4C3B]
Трек 5 точность не определена (достоверность 1) [EE5545E8], AccurateRip вернул [41986E08]
Трек 6 точность не определена (достоверность 1) [E600878B], AccurateRip вернул [00981E9B]
Трек 7 точность не определена (достоверность 1) [20CD1DB0], AccurateRip вернул [C9D04478]
Трек 8 точность не определена (достоверность 1) [7E5A27A7], AccurateRip вернул [114B4CA7]
Трек 9 точность не определена (достоверность 1) [D791C8CD], AccurateRip вернул [3513A5B5]
Трек 10 точность не определена (достоверность 1) [BB9B4B33], AccurateRip вернул [D3F7114B]
Трек 11 точность не определена (достоверность 1) [44073B16], AccurateRip вернул [4C33090E]
Трек 12 точность не определена (достоверность 1) [80FBBB75], AccurateRip вернул [DC2E903D]
Трек 13 точность не определена (достоверность 1) [6B3F7A37], AccurateRip вернул [7FD9AC4F]
Трек 14 точность не определена (достоверность 1) [52A6ECEB], AccurateRip вернул [407D9003]
Трек 15 точность не определена (достоверность 1) [C5D6E2F7], AccurateRip вернул [FC51E257]

Ни один трек не прошёл проверки на точность
В вашей базе может быть иной вариант штамповки диска

Конец отчёта
Профиль  ЛС 
Guzel88

Стаж: 10 лет
Сообщений: 6
Откуда: Уфа

Создавать темы Guzel88 написал(а)
19-Фев-2011 01:30 (спустя 11 месяцев 22 дня)
спасибо
Профиль  ЛС 
Показать сообщения:     

Вы не можете начинать темы
Вы не можете отвечать на сообщения
Вы не можете редактировать свои сообщения
Вы не можете удалять свои сообщения
Вы не можете голосовать в опросах
Вы не можете прикреплять файлы к сообщениям
Вы не можете скачивать файлы

Текущее время: 20-Фев 03:57
Часовой пояс: UTC + 5