Крестный отец: Кинотрилогия / The Godfather Collection: The Coppola Restoration (Френсис Форд Коппола) [720p|DXVA] [1972, 1974, 1990 г., криминальная драма, BDRip]

Автор Сообщение
Noman ®

Стаж: 10 лет
Сообщений: 362
Откуда: HD долина

Создавать темы Noman ® написал(а)
19-Ноя-2009 17:58

Крестный отец: Кинотрилогия
The Godfather Collection: The Coppola Restoration



«Настоящая сила не может быть дана, она может быть взята...»

Год выпуска: 1972
Страна: США
Жанр: криминальная драма
Продолжительность: 02:57:09
Перевод:
  • Профессиональный (многоголосый, закадровый) |Киномания|
  • Авторский (одноголосый, закадровый) |Живов|
  • Авторский (одноголосый, закадровый) |Кравцев|

Режиссер: Френсис Форд Коппола
В ролях: Марлон Брандо, Аль Пачино, Джеймс Каан, Ричард Кастеллано, Дайэн Китон, Талия Шайр, Роберт Дювалл, Стерлинг Хэйден, Ричард Конте, Джон Марли, Аль Леттьери
Криминальная сага, повествующая о нью-йоркской сицилийской мафиозной семье Корлеоне. Фильм охватывает период 1945—1955 годов. Глава семьи, Дон Вито Корлеоне, выдаёт замуж свою дочь. В это время со Второй мировой войны возвращается его любимый сын Майкл. Майкл, герой войны, гордость семьи, не выражает желания заняться жестоким семейным бизнесом. Дон Корлеоне ведёт дела по старым правилам, но наступают иные времена, и появляются люди, желающие изменить сложившиеся порядки. На Дона Корлеоне совершается покушение.

Он выживает, но временно теряет возможность управлять делами семьи. Благополучие и даже выживание семьи поставлено под угрозу. И здесь Майклу приходится вмешаться. Ради семьи он совершает двойное убийство, что вынуждает его некоторое время скрываться в Италии. Там он женится, но при покушении на него погибает его молодая жена. Майкл возвращается в Нью-Йорк и всерьёз начинает заниматься делами семьи, сам становясь в итоге её главой.

9.2/10 Top 250: #2 | 8.687 Top 250: #12

Оскар, 1973 год
Победитель (3):
  • Лучший фильм
    • Лучшая мужская роль (Марлон Брандо)
    • Лучший адаптированный сценарий
    Номинации (8):
  • Лучшая мужская роль второго плана (Джеймс Каан)
  • Лучшая мужская роль второго плана (Аль Пачино)
  • Лучшая мужская роль второго плана (Роберт Дювалл)
  • Лучший режиссер (Френсис Форд Коппола)
  • Лучшие костюмы
  • Лучший звук
  • Лучший монтаж
  • Лучший саундтрек к драматическому фильму

Золотой глобус, 1973 год
Победитель (5):
  • Лучшая мужская роль (драма) (Марлон Брандо)
  • Лучший фильм (драма)
  • Лучший режиссер (Френсис Форд Коппола)
  • Лучший сценарий
  • Лучший саундтрек
Номинации (2):
  • Лучшая мужская роль (драма) (Аль Пачино)
  • Лучшая мужская роль второго плана (Джеймс Каан)

Британская академия, 1973 год
Победитель (1):
  • Премия имени Энтони Эскуита за достижения в создании музыки к фильму
Номинации (4):
  • Лучшая мужская роль (Марлон Брандо)
  • Лучшая мужская роль второго плана (Роберт Дювалл)
  • Лучшие костюмы
  • Лучший новичок (Аль Пачино)

  • Марио Пьюзо был полностью разорен, когда подписывал контракт с «Random House» на издание «Крестного отца».
  • Студия Paramount приобрела права на экранизацию романа еще до того, как он был опубликован. В распоряжении студии был лишь 20-страничный план романа.
  • Книга Пьюзо стала бестселлером, разойдясь тиражом 10 миллионов экземпляров.
  • Сам писатель как-то признался, что все свои знания о мафии он почерпнул из других книг.
  • Место режиссёра фильма было сначала предложено Серджио Леоне, но тот отказался и занялся фильмом «Однажды в Америке». Впоследствии Леоне сожалел о своём решении.
  • Кинокомпания Paramount Pictures до начала съёмок хотела отобрать проект у Копполы и передать его режиссёру Элии Казану, но Брандо сказал, что тоже уйдёт, если уволят Копполу.
  • На разные роли в фильме рассматривалось неимоверное количество звёзд первой величины: Уоррен Битти, Ален Делон, Бёрт Рейнольдс, Роберт Редфорд, Дастин Хоффман, Джек Николсон, Роберт Де Ниро, Лоуренс Оливье и другие. Но Коппола отверг все эти кандидатуры.
  • По некоторым сведениям, на роль Вито Корлеоне также претендовал Фрэнк Синатра.
  • Во время съёмок Брандо носил специальную капу, чтобы его челюсть выглядела как челюсть бульдога.
  • Актёр Ленни Монтана, игравший Луку Брази, так трепетал при виде Марлона Брандо, что постоянно путал текст. Копполе понравилась такая натуральная нервозность, и он вставил в фильм сцену прямо со спутанным текстом.
  • Всего в фильме показано 18 трупов, включая лошадь.
  • Слово «коппола» (итал. coppola) обозначает традиционную сицилийскую шляпу, такие шляпы можно увидеть в некоторых «итальянских» сценах фильма. А Корлеоне (итал. Corleone) — это название горной сицилийской деревушки, многие годы служившей убежищем для мафиози.
  • Марлон Брандо отказался от присуждённого ему «Оскара».
  • Композитор Нино Рота был номинирован на «Оскар» за лучшую музыку к фильму, но номинацию отменили, когда выяснилось, что он не писал для фильма целиком новой музыки, а переработал отрывки из старой (из фильма «Фортунелла», 1958).
  • В фильме ни разу не звучит слово «мафия».
  • Апельсины являются символом смерти в картине: через некоторое время после их появления в кадре кто-либо погибает.
  • В сицилийских сценах первого и третьего «Крёстых отцов» небольшую роль сыграл Франко Читти — постоянный актёр Пьера Паоло Пазолини (известен, прежде всего, благодаря главной роли в драме «Царь Эдип»).
  • В январе 2008 года компания McFarline выпустила 16-ти сантиметровую фигурку Дона Корлеоне.
  • Прототипом Вито Корлеоне являлся знаменитый ганстер Джозеф «Джо» Бонанно.
  • В 2006 году по фильму вышла компьютерная игра с одноименным названием.
  • В книге у Майкла и Кей Корлеоне было 2 сына, а в фильме сын и дочь.
  • Аль Пачино назвал роль Майкла Корлеоне самой сложной в своей карьере.
  • Манеру говорить хриплым голосом создатели фильма взяли дону Корлеоне от знаменитого гангстера Фрэнка Костелло. В детстве Фрэнку
  • случайно повредили голосовые связки во время операции по удалению аденоидов.
  • Прототипом Джонни Фонтейна являлся Фрэнк Синатра.
  • Съёмки «Крёстного отца» проходили в течение четырёх месяцев в середине 1971 года.
  • Продюсеры всеми силами пытались заставить Френсиса Форда Копполу уволить Пачино со съемок «Крестного отца». Просматривая отснятый материал, они постоянно задавали режиссеру один и тот же вопрос: «Когда же он, наконец, начнет ИГРАТЬ?» Только увидев сцену, в которой Майкл Карлеоне убивает комиссара полиции, они поняли гениальную режиссерскую прозорливость Копполы.

Код:

G:\Фильмы и мультфильмы\Крестный отец [720p]\Крестный отец. Кинотрилогия\Крестный отец [720p] part I.mkv
   General
      Complete name : G:\Фильмы и мультфильмы\Крестный отец [720p]\Крестный отец. Кинотрилогия\Крестный отец [720p] part I.mkv
      Format : Matroska
      File size : 11.8 GiB
      Duration : 2h 57mn
      Overall bit rate : 9 554 Kbps
      Movie name : The Godfather (1972)
      Encoded date : UTC 2010-05-16 11:24:48
      Writing application : mkvmerge v3.3.0 ('Language') built on Mar 24 2010 14:59:24
      Writing library : libebml v0.8.0 + libmatroska v0.9.0
      Cover : Yes / Yes / Yes
   Video #1
      ID : 1
      Format : AVC
      Format/Info : Advanced Video Codec
      Format profile : High@L4.1
      Format settings, CABAC : Yes
      Format settings, ReFrames : 9 frames
      Muxing mode : Container profile=Unknown@4.1
      Codec ID : V_MPEG4/ISO/AVC
      Duration : 2h 57mn
      Bit rate : 5 740 Kbps
      Nominal bit rate : 5 935 Kbps
      Width : 1 280 pixels
      Height : 720 pixels
      Display aspect ratio : 16:9
      Frame rate : 23.976 fps
      Resolution : 8 bits
      Colorimetry : 4:2:0
      Scan type : Progressive
      Bits/(Pixel*Frame) : 0.260
      Stream size : 7.10 GiB (60%)
      Writing library : x264 core 85 r1442 781d300
      Encoding settings : cabac=1 / ref=9 / deblock=1:-3:-3 / analyse=0x3:0x113 / me=umh / subme=10 / psy=1 / psy_rd=0.80:0.20 / mixed_ref=1 / me_range=48 / chroma_me=1 / trellis=2 / 8x8dct=1 / cqm=0 / deadzone=21,11 / fast_pskip=0 / chroma_qp_offset=-3 / threads=6 / sliced_threads=0 / nr=0 / decimate=1 / mbaff=0 / constrained_intra=0 / bframes=6 / b_pyramid=2 / b_adapt=2 / b_bias=0 / direct=3 / wpredb=1 / wpredp=2 / keyint=250 / keyint_min=25 / scenecut=40 / intra_refresh=0 / rc_lookahead=0 / rc=2pass / mbtree=0 / bitrate=5935 / ratetol=1.0 / qcomp=0.60 / qpmin=10 / qpmax=51 / qpstep=4 / cplxblur=20.0 / qblur=0.5 / vbv_maxrate=50000 / vbv_bufsize=62500 / ip_ratio=1.40 / pb_ratio=1.30 / aq=1:1.00
   Audio #2
      ID : 2
      Format : AC-3
      Format/Info : Audio Coding 3
      Codec ID : A_AC3
      Duration : 2h 57mn
      Bit rate mode : Constant
      Bit rate : 640 Kbps
      Channel(s) : 6 channels
      Channel positions : Front: L C R, Side: L R, LFE
      Sampling rate : 48.0 KHz
      Stream size : 811 MiB (7%)
      Title : AC3 5.1 640 kbps [Киномания]
      Language : Russian
   Audio #3
      ID : 3
      Format : DTS
      Format/Info : Digital Theater Systems
      Codec ID : A_DTS
      Duration : 2h 57mn
      Bit rate mode : Constant
      Bit rate : 755 Kbps
      Channel(s) : 6 channels
      Channel positions : Front: L C R, Side: L R, LFE
      Sampling rate : 48.0 KHz
      Resolution : 24 bits
      Stream size : 956 MiB (8%)
      Title : DTS 5.1 768 kbps [Кравцев]
      Language : Russian
   Audio #4
      ID : 4
      Format : DTS
      Format/Info : Digital Theater Systems
      Codec ID : A_DTS
      Duration : 2h 57mn
      Bit rate mode : Constant
      Bit rate : 1 510 Kbps
      Channel(s) : 6 channels
      Channel positions : Front: L C R, Side: L R, LFE
      Sampling rate : 48.0 KHz
      Resolution : 24 bits
      Stream size : 1.87 GiB (16%)
      Title : DTS 5.1 1536 kbps [Живов]
      Language : Russian
   Audio #5
      ID : 5
      Format : AC-3
      Format/Info : Audio Coding 3
      Codec ID : A_AC3
      Duration : 2h 57mn
      Bit rate mode : Constant
      Bit rate : 640 Kbps
      Channel(s) : 6 channels
      Channel positions : Front: L C R, Side: L R, LFE
      Sampling rate : 48.0 KHz
      Stream size : 811 MiB (7%)
      Language : English
   Audio #6
      ID : 6
      Format : Vorbis
      Format settings, Floor : 1
      Codec ID : A_VORBIS
      Duration : 2h 57mn
      Bit rate mode : Constant
      Bit rate : 80.0 Kbps
      Channel(s) : 2 channels
      Sampling rate : 48.0 KHz
      Stream size : 101 MiB (1%)
      Title : Commentary
      Writing library : libVorbis 1.1.1/1.1.2 (UTC 2005-03-04)
      Language : English
   Text #7
      ID : 7
      Format : UTF-8
      Codec ID : S_TEXT/UTF8
      Codec ID/Info : UTF-8 Plain Text
      Language : Russian
   Text #8
      ID : 8
      Format : UTF-8
      Codec ID : S_TEXT/UTF8
      Codec ID/Info : UTF-8 Plain Text
      Language : Russian
   Text #9
      ID : 9
      Format : UTF-8
      Codec ID : S_TEXT/UTF8
      Codec ID/Info : UTF-8 Plain Text
      Language : Russian
   Text #10
      ID : 10
      Format : UTF-8
      Codec ID : S_TEXT/UTF8
      Codec ID/Info : UTF-8 Plain Text
      Language : English

Рип: Voland_ | Качество: Blu-ray Disk Rip | Формат: MKV

Видео: 1280x720, 23,976 fps, ~5935 kbps, x264
Аудио:
  • Русский: AC3; Dolby Digital 5.1: L C R, Surround: L R, LFE ; 48.0 KHz; 640 kbps Профессиональный (многоголосый, закадровый) |Киномания|
  • Русский: DTS; Dolby Digital 5.1: L C R, Surround: L R, LFE ; 48.0 KHz; 1536 Kbps Авторский (одноголосый, закадровый) |Живов|
  • Русский: DTS; Dolby Digital 5.1: L C R, Surround: L R, LFE ; 48.0 KHz; 768 kbps Авторский (одноголосый, закадровый) |Кравцев|
  • Английский: AC3; Dolby Digital 5.1: L C R, Surround: L R, LFE; 48.0 KHz; 640 kbps
  • Английский: Vorbis; 2 ch; 48.0 KHz; 80 kbps |Коментарии|
Субтитры: Russion,English



(Полноразмерные скриншоты открываются кликом по миниатюре)

Особая благодарность Gramila за программу создания скриншотов

«Сага продолжается...»

Год выпуска: 1974
Страна: США
Жанр: криминальная драма
Продолжительность: 03:22:06
Перевод:
  • Профессиональный (многоголосый, закадровый) |Киномания|
  • Авторский (одноголосый, закадровый) |Живов|
  • Авторский (одноголосый, закадровый) |Кравцев|

Режиссер: Френсис Форд Коппола
В ролях: Аль Пачино, Роберт Дюваль, Дайан Китон, Роберт Де Ниро, Джон Казале, Талия Шайр, Ли Страсберг, Майкл В. Гаццо, Г.Д. Спрэдлин, Ричард Брайт
В центре драмы представители нового поколения гангстерского клана - дона Корлеоне и его сына, для которых не существует моральных преград на пути достижения поставленых целей. Они превращают мафию, построенную по патриархальным, еще сицилийским законам, в весьма прагматичную, жесткую корпорацию, плавно интегрирующуюся в большой бизнес Америки.
9.0/10 Top 250: #3 | 8.463 Top 250: #45

Британская академия, 1976 год
Номинации (3):
  • Лучший монтаж
  • Лучший новичок (Роберт Де Ниро)
  • Премия имени Энтони Эскуита за достижения в создании музыки к фильму

Оскар, 1975 год
Победитель (6):
  • Лучший фильм
  • Лучшая мужская роль второго плана (Роберт Де Ниро)
  • Лучший режиссер (Френсис Форд Коппола)
  • Лучший адаптированный сценарий
  • Лучшие декорации
  • Лучший саундтрек к драматическому фильму
Номинации (5):
  • Лучшая мужская роль (Аль Пачино)
  • Лучшая мужская роль второго плана (Майкл В. Гаццо)
  • Лучшая мужская роль второго плана (Ли Страсберг)
  • Лучшая женская роль второго плана (Талия Шайр)
  • Лучшие костюмы

Золотой глобус, 1975 год
Номинации (6):
  • Лучшая мужская роль (драма) (Аль Пачино)
  • Лучший фильм (драма)
  • Лучший режиссер (Френсис Форд Коппола)
  • Лучший сценарий
  • Лучший саундтрек
  • Самый многообещающий новичок среди мужчин (Ли Страсберг)

  • Еще до первого «Крестного отца» Коппола хотел снять фильм, в котором собирался показать отца и сына в одном и том же возрасте. В отце он хотел увидеть черты его будущего сына, а в сыне – черты отца.
  • По замыслу Копполы Майкл должен был убить Фредо. Автор романа и соавтор сценария Марио Пьюзо сначала воспротивился этому, но затем согласился – при одном условии: убийство должно произойти только после смерти матери героев.
  • По словам Копполы, второй фильм не задумывался как сиквел в голливудском понимании этого слова. Сценарий представлял как бы вторую часть романа. Это оказало влияние и на методы производства картины. На съемках использовалась та же аппаратура, что и на первом «Крестном отце», хотя в 1974 году уже появились более современные технологии.
  • В ранней версии сценария была сюжетная линия, в которой у Тома Хагена развивался роман с вдовой Сонни Корлеоне. Позже от этих сцен было решено отказаться, но при этом сохранилась фраза Майкла Корлеоне с упоминанием любовницы Хагена.
  • В одной из вырезанных сцен, которая включена в DVD-версию фильма, Вито, Дженко и Клеменца встречаются в магазине, принадлежащему некоему синьору Копполе. Клеменца просит Копполу, чтобы его сын Кармин сыграл на кларнете. Существует предположение, что эту сцену режиссер посвятил своему отцу Кармину Копполе, сочинившему дополнительную музыку для первых двух «Крестных отцов».

Код:

G:\Фильмы и мультфильмы\Крестный отец [720p]\Крестный отец. Кинотрилогия\Крестный отец [720p] part II.mkv
   General
      Complete name : G:\Фильмы и мультфильмы\Крестный отец [720p]\Крестный отец. Кинотрилогия\Крестный отец [720p] part II.mkv
      Format : Matroska
      File size : 12.4 GiB
      Duration : 3h 22mn
      Overall bit rate : 8 768 Kbps
      Movie name : The Godfather: Part II (1974)
      Encoded date : UTC 2010-05-16 12:51:41
      Writing application : mkvmerge v3.3.0 ('Language') built on Mar 24 2010 14:59:24
      Writing library : libebml v0.8.0 + libmatroska v0.9.0
      Cover : Yes / Yes / Yes
   Video #1
      ID : 1
      Format : AVC
      Format/Info : Advanced Video Codec
      Format profile : High@L4.1
      Format settings, CABAC : Yes
      Format settings, ReFrames : 9 frames
      Muxing mode : Container profile=Unknown@4.1
      Codec ID : V_MPEG4/ISO/AVC
      Duration : 3h 22mn
      Bit rate : 4 969 Kbps
      Nominal bit rate : 5 149 Kbps
      Width : 1 280 pixels
      Height : 720 pixels
      Display aspect ratio : 16:9
      Frame rate : 23.976 fps
      Resolution : 8 bits
      Colorimetry : 4:2:0
      Scan type : Progressive
      Bits/(Pixel*Frame) : 0.225
      Stream size : 7.01 GiB (57%)
      Writing library : x264 core 85 r1442 781d300
      Encoding settings : cabac=1 / ref=9 / deblock=1:-3:-2 / analyse=0x3:0x113 / me=umh / subme=10 / psy=1 / psy_rd=0.90:0.20 / mixed_ref=1 / me_range=48 / chroma_me=1 / trellis=2 / 8x8dct=1 / cqm=0 / deadzone=21,11 / fast_pskip=0 / chroma_qp_offset=-3 / threads=6 / sliced_threads=0 / nr=0 / decimate=1 / mbaff=0 / constrained_intra=0 / bframes=6 / b_pyramid=2 / b_adapt=2 / b_bias=0 / direct=3 / wpredb=1 / wpredp=2 / keyint=250 / keyint_min=25 / scenecut=40 / intra_refresh=0 / rc_lookahead=0 / rc=2pass / mbtree=0 / bitrate=5149 / ratetol=1.0 / qcomp=0.60 / qpmin=10 / qpmax=51 / qpstep=4 / cplxblur=20.0 / qblur=0.5 / vbv_maxrate=50000 / vbv_bufsize=62500 / ip_ratio=1.40 / pb_ratio=1.30 / aq=1:1.00
   Audio #2
      ID : 2
      Format : AC-3
      Format/Info : Audio Coding 3
      Codec ID : A_AC3
      Duration : 3h 22mn
      Bit rate mode : Constant
      Bit rate : 640 Kbps
      Channel(s) : 6 channels
      Channel positions : Front: L C R, Side: L R, LFE
      Sampling rate : 48.0 KHz
      Stream size : 925 MiB (7%)
      Title : AC3 5.1 640 kbps [Киномания]
      Language : Russian
   Audio #3
      ID : 3
      Format : DTS
      Format/Info : Digital Theater Systems
      Codec ID : A_DTS
      Duration : 3h 22mn
      Bit rate mode : Constant
      Bit rate : 755 Kbps
      Channel(s) : 6 channels
      Channel positions : Front: L C R, Side: L R, LFE
      Sampling rate : 48.0 KHz
      Resolution : 24 bits
      Stream size : 1.07 GiB (9%)
      Title : DTS 5.1 768 kbps [Кравцев]
      Language : Russian
   Audio #4
      ID : 4
      Format : DTS
      Format/Info : Digital Theater Systems
      Codec ID : A_DTS
      Duration : 3h 22mn
      Bit rate mode : Constant
      Bit rate : 1 510 Kbps
      Channel(s) : 6 channels
      Channel positions : Front: L C R, Side: L R, LFE
      Sampling rate : 48.0 KHz
      Resolution : 24 bits
      Stream size : 2.13 GiB (17%)
      Title : DTS 5.1 1536 kbps [Живов]
      Language : Russian
   Audio #5
      ID : 5
      Format : AC-3
      Format/Info : Audio Coding 3
      Codec ID : A_AC3
      Duration : 3h 22mn
      Bit rate mode : Constant
      Bit rate : 640 Kbps
      Channel(s) : 6 channels
      Channel positions : Front: L C R, Side: L R, LFE
      Sampling rate : 48.0 KHz
      Stream size : 925 MiB (7%)
      Title : DD 5.1
      Language : English
   Audio #6
      ID : 6
      Format : Vorbis
      Format settings, Floor : 1
      Codec ID : A_VORBIS
      Duration : 3h 22mn
      Bit rate mode : Constant
      Bit rate : 80.0 Kbps
      Channel(s) : 2 channels
      Sampling rate : 48.0 KHz
      Stream size : 116 MiB (1%)
      Title : Commentary
      Writing library : libVorbis 1.1.1/1.1.2 (UTC 2005-03-04)
      Language : English
   Text #7
      ID : 7
      Format : UTF-8
      Codec ID : S_TEXT/UTF8
      Codec ID/Info : UTF-8 Plain Text
      Language : Russian
   Text #8
      ID : 8
      Format : ASS
      Codec ID : S_TEXT/ASS
      Codec ID/Info : Advanced Sub Station Alpha
      Language : English
   Text #9
      ID : 9
      Format : UTF-8
      Codec ID : S_TEXT/UTF8
      Codec ID/Info : UTF-8 Plain Text
      Language : English

Рип: Voland_ | Качество: Blu-ray Disk Rip | Формат: MKV

Видео: 1280x720p, 23,976 fps, ~5149 kbps, x264
Аудио:
  • Русский: AC3; Dolby Digital 5.1: L C R, Surround: L R, LFE ; 48.0 KHz; 640 kbps Профессиональный (многоголосый, закадровый) |Киномания|
  • Русский: DTS; Dolby Digital 5.1: L C R, Surround: L R, LFE ; 48.0 KHz; 1536 Kbps Авторский (одноголосый, закадровый) |Живов|
  • Русский: DTS; Dolby Digital 5.1: L C R, Surround: L R, LFE ; 48.0 KHz; 768 kbps Авторский (одноголосый, закадровый) |Кравцев|
  • Английский: AC3; Dolby Digital 5.1: L C R, Surround: L R, LFE; 48.0 KHz; 640 kbps
  • Английский: Vorbis; 2 ch; 48.0 KHz; 80 kbps |Коментарии|
Субтитры: Russion,English

(Полноразмерные скриншоты открываются кликом по миниатюре)

Особая благодарность Gramila за программу создания скриншотов



«Настоящую власть никто не дает. Её нужно взять.»

Год выпуска: 1990
Страна: США
Жанр: криминальная драма
Продолжительность: 02:50:15
Перевод:
  • Профессиональный (многоголосый, закадровый) |Киномания|
  • Авторский (одноголосый, закадровый) |Живов|
  • Авторский (одноголосый, закадровый) |Кравцев|

Режиссер: Френсис Форд Коппола
В ролях: Аль Пачино, Дайан Китон, Талия Шайр, Энди Гарсиа, Эли Уоллах, Джо Мантенья, Джордж Хэмилтон, Бриджет Фонда, София Коппола, Раф Валлон
Заключительная часть знаменитой гангстерской эпопеи, в которой продолжается рассказ о делах «семьи» дона Корлеоне. Через двадцать лет после событий, описанных в предыдущей картине, Майкл Корлеоне решает заняться легальным бизнесом. Однако противодействие внутри клана заставляет его вспомнить об испытанных кровавых методах общения с противником, что приводит к трагическому итогу.
7.6/10 | 8.087

Оскар, 1991 год
Номинации (7):
  • Лучший фильм
  • Лучшая мужская роль второго плана (Энди Гарсиа)
  • Лучший режиссер (Френсис Форд Коппола)
  • Лучшая работа оператора
  • Лучшие декорации
  • Лучший монтаж
  • Лучшая песня — «Promise Me You'll Remember»

Золотой глобус, 1991 год
Номинации (7):
  • Лучший фильм (драма)
  • Лучшая мужская роль (драма) (Аль Пачино)
  • Лучшая мужская роль второго плана (Энди Гарсиа)
  • Лучший режиссер (Френсис Форд Коппола)
  • Лучший сценарий
  • Лучшая песня — «Promise Me You'll Remember»
  • Лучший саундтрек

Золотая малина, 1991 год
Победитель (2):
  • Худшая женская роль второго плана (София Коппола)
  • Худшая новая звезда (София Коппола)

  • В книге «Крестный отец» у Майкла Корлеоне было 2 сына, однако в фильме у него сын и дочь.
  • Френсис Форд Коппола хотел снять и четвертую часть «Крестного отца». В ней главные роли играли бы Энди Гарсия и Леонардо ди Каприо.
  • Но из-за смерти автора книги съемки не состоялись.
  • Полная видеоверсия фильма имеет хронометраж 169 минут.
  • София Коппола (дочь режиссера Фрэнсиса Форда Копполы), играет роль дочери Майкла Корлеоне, однако в фильме «Крестный отец» (1972) она играла его племянницу, будучи ребенком. Вайнона Райдер должна была сыграть эту роль, но отказалась ради роли в фильме «Эдвард Руки-ножницы»(1990).
  • Вместо Энди Гарсии роль Винсента могли сыграть: Алек Болдуин, Мэтт Диллон, Винсент Спано, Вэл Килмер, Чарли Шин, Билли Зэйн, Николас Кейдж.
  • Сюжет частично основан на идеях, опубликованных в книге Дэвида Яллопа «Во имя Господа».
  • Роберт Де Ниро хотел поучаствовать в проекте, но Коппола, поразмыслив, отказал ему.
  • Из-за разногласий с «Парамаунтом» Роберт Дювалл не стал участвовать в проекте, и из сценария был исключен один из ключевых персонажей — Том Хаген.

Код:

G:\Фильмы и мультфильмы\Крестный отец [720p]\Крестный отец. Кинотрилогия\Крестный отец [720p] part III.mkv
   General
      Complete name : G:\Фильмы и мультфильмы\Крестный отец [720p]\Крестный отец. Кинотрилогия\Крестный отец [720p] part III.mkv
      Format : Matroska
      File size : 11.7 GiB
      Duration : 2h 50mn
      Overall bit rate : 9 803 Kbps
      Movie name : The Godfather: Part III (1990)
      Encoded date : UTC 2010-05-16 13:17:56
      Writing application : mkvmerge v3.3.0 ('Language') built on Mar 24 2010 14:59:24
      Writing library : libebml v0.8.0 + libmatroska v0.9.0
      Cover : Yes / Yes / Yes
   Video #1
      ID : 1
      Format : AVC
      Format/Info : Advanced Video Codec
      Format profile : High@L4.1
      Format settings, CABAC : Yes
      Format settings, ReFrames : 9 frames
      Muxing mode : Container profile=Unknown@4.1
      Codec ID : V_MPEG4/ISO/AVC
      Duration : 2h 50mn
      Bit rate : 5 984 Kbps
      Nominal bit rate : 6 183 Kbps
      Width : 1 280 pixels
      Height : 720 pixels
      Display aspect ratio : 16:9
      Frame rate : 23.976 fps
      Resolution : 8 bits
      Colorimetry : 4:2:0
      Scan type : Progressive
      Bits/(Pixel*Frame) : 0.271
      Stream size : 7.12 GiB (61%)
      Writing library : x264 core 85 r1442 781d300
      Encoding settings : cabac=1 / ref=9 / deblock=1:-3:-2 / analyse=0x3:0x113 / me=umh / subme=10 / psy=1 / psy_rd=1.20:0.00 / mixed_ref=1 / me_range=48 / chroma_me=1 / trellis=2 / 8x8dct=1 / cqm=0 / deadzone=21,11 / fast_pskip=0 / chroma_qp_offset=-2 / threads=6 / sliced_threads=0 / nr=0 / decimate=1 / mbaff=0 / constrained_intra=0 / bframes=6 / b_pyramid=2 / b_adapt=2 / b_bias=0 / direct=3 / wpredb=1 / wpredp=2 / keyint=250 / keyint_min=25 / scenecut=40 / intra_refresh=0 / rc_lookahead=0 / rc=2pass / mbtree=0 / bitrate=6183 / ratetol=1.0 / qcomp=0.60 / qpmin=10 / qpmax=51 / qpstep=4 / cplxblur=20.0 / qblur=0.5 / vbv_maxrate=50000 / vbv_bufsize=62500 / ip_ratio=1.40 / pb_ratio=1.30 / aq=1:1.00
   Audio #2
      ID : 2
      Format : AC-3
      Format/Info : Audio Coding 3
      Codec ID : A_AC3
      Duration : 2h 50mn
      Bit rate mode : Constant
      Bit rate : 640 Kbps
      Channel(s) : 6 channels
      Channel positions : Front: L C R, Side: L R, LFE
      Sampling rate : 48.0 KHz
      Stream size : 779 MiB (7%)
      Title : AC3 5.1 640 kbps [Киномания]
      Language : Russian
   Audio #3
      ID : 3
      Format : DTS
      Format/Info : Digital Theater Systems
      Codec ID : A_DTS
      Duration : 2h 50mn
      Bit rate mode : Constant
      Bit rate : 755 Kbps
      Channel(s) : 6 channels
      Channel positions : Front: L C R, Side: L R, LFE
      Sampling rate : 48.0 KHz
      Resolution : 24 bits
      Stream size : 919 MiB (8%)
      Title : DTS 5.1 768kbps [Кравцев]
      Language : Russian
   Audio #4
      ID : 4
      Format : DTS
      Format/Info : Digital Theater Systems
      Codec ID : A_DTS
      Duration : 2h 50mn
      Bit rate mode : Constant
      Bit rate : 1 510 Kbps
      Channel(s) : 6 channels
      Channel positions : Front: L C R, Side: L R, LFE
      Sampling rate : 48.0 KHz
      Resolution : 24 bits
      Stream size : 1.80 GiB (15%)
      Title : DTS 5.1 1536 kbps [Живов]
      Language : Russian
   Audio #5
      ID : 5
      Format : AC-3
      Format/Info : Audio Coding 3
      Codec ID : A_AC3
      Duration : 2h 50mn
      Bit rate mode : Constant
      Bit rate : 640 Kbps
      Channel(s) : 6 channels
      Channel positions : Front: L C R, Side: L R, LFE
      Sampling rate : 48.0 KHz
      Stream size : 779 MiB (7%)
      Title : AC3 5.1 640 kbps
      Language : English
   Audio #6
      ID : 6
      Format : Vorbis
      Format settings, Floor : 1
      Codec ID : A_VORBIS
      Duration : 2h 50mn
      Bit rate mode : Constant
      Bit rate : 80.0 Kbps
      Channel(s) : 2 channels
      Sampling rate : 48.0 KHz
      Stream size : 97.4 MiB (1%)
      Title : Commentary
      Writing library : libVorbis 1.1.1/1.1.2 (UTC 2005-03-04)
      Language : English
   Text #7
      ID : 7
      Format : UTF-8
      Codec ID : S_TEXT/UTF8
      Codec ID/Info : UTF-8 Plain Text
      Language : Russian
   Text #8
      ID : 8
      Format : UTF-8
      Codec ID : S_TEXT/UTF8
      Codec ID/Info : UTF-8 Plain Text
      Language : Russian
   Text #9
      ID : 9
      Format : ASS
      Codec ID : S_TEXT/ASS
      Codec ID/Info : Advanced Sub Station Alpha
      Language : English

Рип: Voland_ | Качество: Blu-ray Disk Rip | Формат: MKV

Видео: 1280x720, 23,976 fps, ~6183 kbps, x264
Аудио:
  • Русский: AC3; Dolby Digital 5.1: L C R, Surround: L R, LFE ; 48.0 KHz; 640 Kbps Профессиональный (многоголосый, закадровый) |Киномания|
  • Русский: DTS; Dolby Digital 5.1: L C R, Surround: L R, LFE ; 48.0 KHz; 1536 Kbps Авторский (одноголосый, закадровый) |Живов|
  • Русский: DTS; Dolby Digital 5.1: L C R, Surround: L R, LFE ; 48.0 KHz; 768 kbps Авторский (одноголосый, закадровый) |Кравцев|
  • Английский: AC3; Dolby Digital 5.1: L C R, Surround: L R, LFE; 48.0 KHz; 640 kbps
  • Английский: Vorbis; 2 ch; 48.0 KHz; 80 kbps |Коментарии|
Субтитры: Russiаn,English



(Полноразмерные скриншоты открываются кликом по миниатюре)

Особая благодарность Gramila за программу создания скриншотов



Последний раз редактировалось: Noman (2010-05-17 12:04), всего редактировалось 6 раз(а)
Профиль  ЛС 
Noman ®

Стаж: 10 лет
Сообщений: 362
Откуда: HD долина

Создавать темы Noman ® написал(а)
19-Ноя-2009 18:06 (спустя 8 минут)
Спасибо за дороги говорим ZaaOooZaa, за ковры *Макс*
Профиль  ЛС 
<<<DIKEY>>

Стаж: 10 лет
Сообщений: 96
Откуда: БГУ ХИМФАК

Создавать темы <<<DIKEY>> написал(а)
19-Ноя-2009 20:02 (спустя 1 час 55 минут)
Noman
ну поставь ты нормальный шрифт в своих сообщениях, а то читать невозможно
Профиль  ЛС 
Noman ®

Стаж: 10 лет
Сообщений: 362
Откуда: HD долина

Создавать темы Noman ® написал(а)
19-Ноя-2009 20:16 (спустя 14 минут)
<<<DIKEY>>
А мне нравиться...Да и читабельно помоему все. bn
Профиль  ЛС 
<<<DIKEY>>

Стаж: 10 лет
Сообщений: 96
Откуда: БГУ ХИМФАК

Создавать темы <<<DIKEY>> написал(а)
19-Ноя-2009 20:40 (спустя 23 минуты)
Noman раз тебе нравиться, тогда ладно ab ac
только первое сообщение расшифруй плиз, а то че то она не читабельно или я слепой
Профиль  ЛС 
ZaaOooZaa

Стаж: 10 лет
Сообщений: 28

Создавать темы ZaaOooZaa написал(а)
19-Ноя-2009 23:58 (спустя 3 часа)
дауж, шрифт фтопку
Профиль  ЛС 
atom_rued

Стаж: 10 лет
Сообщений: 36
Откуда: Москва

Создавать темы atom_rued написал(а)
20-Ноя-2009 02:26 (спустя 2 часа 28 минут)
Nomanспс большое))))))))))))))))))))))))))))))))))))
Профиль  ЛС 
vip02

Стаж: 10 лет
Сообщений: 93

Создавать темы vip02 написал(а)
02-Янв-2010 00:44 (спустя 1 месяц 11 дней)
шрифт норм а вот его цвет временами трудночитаем :) спасибо за раздачу!)

скажите в чем может быть проблема: только начинаю загружать и сразу utorrent выводит ошибку диск перегружен, хотя на загрузке 15-20 торрентов и на раздаче еще 10. Итого активных 35-40 всего. Причем даже при остановке всех раздач и загрузок ошибка не пропадает. Что за фигня?
Профиль  ЛС 
exoundeeq

Стаж: 10 лет
Сообщений: 2

Создавать темы exoundeeq написал(а)
04-Янв-2010 14:33 (спустя 2 дня 13 часов)
Ребяты, дайте докачать, плз!
Профиль  ЛС 
Noman ®

Стаж: 10 лет
Сообщений: 362
Откуда: HD долина

Создавать темы Noman ® написал(а)
17-Май-2010 11:17 (спустя 4 месяца 12 дней)
Рипы заменены на более новые - более качественные.
Профиль  ЛС 
Neilkin

Стаж: 10 лет
Сообщений: 1
Откуда: Уфа

Создавать темы Neilkin написал(а)
20-Июн-2010 19:55 (спустя 1 месяц 3 дня)
дай скорости..на ноч сегодня...
Профиль  ЛС 
Noman ®

Стаж: 10 лет
Сообщений: 362
Откуда: HD долина

Создавать темы Noman ® написал(а)
20-Июн-2010 21:13 (спустя 1 час 18 минут)
Neilkin
Пока не могу, завтра буду раздавать.
Профиль  ЛС 
diniskka

Стаж: 9 лет 1 месяц
Сообщений: 3
Откуда: ??

Создавать темы diniskka написал(а)
05-Июл-2010 18:24 (спустя 14 дней)
скорости нету
Профиль  ЛС 
diniskka

Стаж: 9 лет 1 месяц
Сообщений: 3
Откуда: ??

Создавать темы diniskka написал(а)
05-Июл-2010 18:25 (спустя 1 минута)
10 килобайт в сек
Профиль  ЛС 
Noman ®

Стаж: 10 лет
Сообщений: 362
Откуда: HD долина

Создавать темы Noman ® написал(а)
09-Июл-2010 17:07 (спустя 3 дня)

diniskka писал(а):

10 килобайт в сек
При таком рейтинге больше быть и не может ;)
Профиль  ЛС 
Показать сообщения:     

Вы не можете начинать темы
Вы не можете отвечать на сообщения
Вы не можете редактировать свои сообщения
Вы не можете удалять свои сообщения
Вы не можете голосовать в опросах
Вы не можете прикреплять файлы к сообщениям
Вы не можете скачивать файлы

Текущее время: 24-Авг 21:59
Часовой пояс: UTC + 5