(Heavy Metal) Warlock (1984 - 1987) & Doro (1989 - 2010) - Дискография, FLAC (image + .cue), lossless

Автор Сообщение
Paul_Fear ®

Стаж: 15 лет
Сообщений: 59
Откуда: Land of the Metal Gods

Создавать темы Paul_Fear ® написал(а)
15-Сен-2009 11:56
Warlock & Doro - Дискография


Страна: Germany
Жанр: Heavy Metal
Год выпуска: 1984 - 2010
Формат: FLAC (image + .cue)
Битрейт аудио: lossless
Продолжительность: 19:20:35

Доро (Доротея) Пеш (Doro Pesch), выступающая под сценическим именем Doro — немецкая певица. Экс-вокалистка хэви-метал группы Warlock, в настоящее время выступает сольно.
Пеш родилась 3 июня 1964 года в Дюссельдорфе, ФРГ. Музыкальную карьеру начала в шестнадцать лет в малоизвестной рок-группе Snakebite, позднее в группе Attack. В 1982 году вместе с несколькими участниками Attack отделилась и сформировала группу Warlock.
Warlock стал одним из самых успешных хэви-метал проектов Германии середины 80-х. Четыре выпущенных группой альбома с вокалом Доро разошлись большими тиражами. Однако группа фактически просуществовала всего шесть лет, и в 1988 распалась из-за конфликта с менеджментом и звукозаписывающей компанией. Доро Пеш оказалась единственным участником в собственной группе. Не имея прав на название, она продолжила выступления под своим собственным именем, со старым материалом и стилем, набрав новый состав. В него вошли: Йон Левин (гитара), Томми Хенриксен (бас-гитара), Бобби Рондинелли (ударные, экс-Rainbow). В таком составе группа, уже фактически являющаяся сольным проектом Доро, записывает альбом Force Majeure, песни с которого были написаны ещё для Warlock.
В качестве сольного исполнителя Доро выпустила более десятка альбомов. Права на все песни Warlock принадлежат ей и по прежнему исполняются, сборник ранних записей Rare Diamonds вышел уже под её именем. Состав остальных музыкантов непостоянен и неоднократно менялся в течение пятнадцати лет.
Доро активно принимает участие в проектах других музыкантов. Вместе с Удо Диркшнайдером (экс-Accept) она записала песню Dancing with an Angel. Пеш была гостем на альбоме After Forever, приняв участие в записи песни Who I am.
Также в 1999 году Доро приняла участие в трибьюте, посвященный творчеству Ронни Джеймса Дио Holy Dio, где исполнила песню Egypt (The Chains Are On) с альбома 1984 года Last in Line группы Dio.



01 - Signs Of Satan
02 - After The Bomb
03 - Dark Fade
04 - Homicide Rocker
05 - Without You
06 - Metall Rager
07 - Burning The Witches
08 - Hateful guy
09 - Holding Me

Exact Audio Copy V0.99 prebeta 3 from 28. July 2007

EAC extraction logfile from 18. December 2007, 10:53

Warlock / Burning The Witches

Used drive : ASUS CRW-5232AS Adapter: 0 ID: 1

Read mode : Secure
Utilize accurate stream : Yes
Defeat audio cache : Yes
Make use of C2 pointers : No

Read offset correction : 6
Overread into Lead-In and Lead-Out : No
Fill up missing offset samples with silence : Yes
Delete leading and trailing silent blocks : No
Null samples used in CRC calculations : Yes
Used interface : Installed external ASPI interface

Used output format : Internal WAV Routines
Sample format : 44.100 Hz; 16 Bit; Stereo

TOC of the extracted CD

Track | Start | Length | Start sector | End sector
---------------------------------------------------------
1 | 0:00.32 | 3:17.25 | 32 | 14831
2 | 3:17.57 | 3:55.53 | 14832 | 32509
3 | 7:13.35 | 4:12.57 | 32510 | 51466
4 | 11:26.17 | 3:16.58 | 51467 | 66224
5 | 14:43.00 | 5:35.20 | 66225 | 91369
6 | 20:18.20 | 3:46.52 | 91370 | 108371
7 | 24:04.72 | 4:24.23 | 108372 | 128194
8 | 28:29.20 | 3:46.55 | 128195 | 145199
9 | 32:16.00 | 4:13.45 | 145200 | 164219

Range status and errors

Selected range

Filename T:\EAC\Burning The Witches\Warlock - Burning The Witches.wav

Peak level 86.5 %
Range quality 100.0 %
Copy CRC 0AAB80EB
Copy OK

No errors occurred

End of status report
01 - Hellbound
02 - All Night
03 - Earthshaker Rock
04 - Wrathchild
05 - Down And Out
06 - Out Of Control
07 - Time To Die
08 - Shout It Out
09 - Catch My Heart

Отчёт EAC об извлечении, выполненном 2. июля 2007, 15:01 для диска:
Warlock / Hellbound

Дисковод: AXV CD/DVD-ROM Adapter: 2 ID: 1
Режим чтения: Достоверный (C2: нет, Точный поток: да, Отключение кэша: нет)
Комбинированное смещение чтения/записи: 0
Способность читать области Lead-in и Lead-out : Нет

Выходной формат: Внутренние WAV-операции
44.100 Гц; 16 бит; стерео

Другие параметры:
Заполнение пропущенных сэмплов тишиной : Да
Удаление блоков с тишиной в начале и конце : Нет
Установленный внешний ASPI-интерфейс

Характеристики диапазона извлечения и сообщения об ошибках
Выбранный диапазон
Имя файла D:\net\1985 - Warlock - Hellbound\Warlock - Hellbound.wav

Пиковый уровень 91.7 %
Качество диапазона 100.0 %
CRC 2D25E0CA
Копирование... OK

Ошибок не произошло

Конец отчёта
01 - Mr. Gold
02 - Fight For Rock
03 - Love In The Danger Zone
04 - Speed Of Sound
05 - Midnite In China
06 - Vorwaerts, All Right
07 - True As Steel
08 - Lady In A Rock 'n' Roll Hell
09 - Love Song
10 - Igloo On The Moon (Reckless)
11 - T.O.L.

EAC extraction logfile from 29. July 2007, 16:39 for CD
Warlock / True As Steel

Used drive : Optiarc DVD RW AD-7170A Adapter: 0 ID: 1
Read mode : Secure with NO C2, accurate stream, disable cache
Read offset correction : 48
Overread into Lead-In and Lead-Out : No

Used output format : D:\Programs\MeTaLMaDNeSS.Pack.v2.0.-.Tutoriales.Lossless.(APE.&.FLAC)+.Programas.[Spanish.&.English]\eac095pb5\FLAC.EXE (User Defined Encoder)
32 kBit/s
Additional command line options : -6 -V -T "artist=%a" -T "title=%t" -T "album=%g" -T "date=%y" -T "tracknumber=%n" -T "genre=%m" -T "comment=EAC 0.95beta4 / FLAC 1.1.2 q6" %s
Use compression offset : 0

Other options :
Fill up missing offset samples with silence : Yes
Delete leading and trailing silent blocks : No
Installed external ASPI interface

Range status and errors
Selected range
Filename I:\My Releases\Warlock 1986 True As Steel\CDImage.flac.wav

Peak level 75.9 %
Range quality 100.0 %
CRC DA8A10B9
Copy OK

No errors occured

End of status report
01 - All We Are
02 - Three Minute Warning
03 - I Rule The Ruins
04 - Kiss Of Death
05 - Make Time For Love
06 - East Meets West
07 - Touch Of Evil
08 - Metal Tango
09 - Cold, Cold, World
10 - Fur Immer

EAC extraction logfile from 29. October 2004, 20:06 for CD
Warlock / Triumph And Agony

Used drive : PIONEER DVD-RW DVR-108 Adapter: 1 ID: 0
Read mode : Secure with NO C2, accurate stream, disable cache
Read offset correction : 0
Overread into Lead-In and Lead-Out : No

Used output format : C:\Programmi\Exact Audio Copy\MAC.exe (Monkey's Audio Lossless Encoder)
High Lossless Compression

Other options :
Fill up missing offset samples with silence : Yes
Delete leading and trailing silent blocks : No
Installed external ASPI interface

Range status and errors
Selected range
Filename E:\Metalmadness releases\Triumph and agony.wav

Peak level 99.1 %
Range quality 100.0 %
CRC 710B339B
Copy OK

No errors occured

End of status report



01 - A Whiter Shade Of Pale
02 - Save My Soul
03 - World Gone Wild
04 - Mission Of Mercy
05 - Angels With Dirty Faces
06 - Beyond The Trees
07 - Hard Times
08 - Hellraiser
09 - I Am What I Am
10 - Cry Wolf
11 - Under The Gun
12 - River Of Tears
13 - Bis Aufs Blut

Exact Audio Copy V0.99 prebeta 3 from 28. July 2007

EAC extraction logfile from 15. December 2007, 11:45

Doro / Force Majeure

Used drive : ASUS DRW-1814BLT Adapter: 2 ID: 0

Read mode : Secure
Utilize accurate stream : Yes
Defeat audio cache : Yes
Make use of C2 pointers : No

Read offset correction : 6
Overread into Lead-In and Lead-Out : No
Fill up missing offset samples with silence : Yes
Delete leading and trailing silent blocks : No
Null samples used in CRC calculations : Yes
Used interface : Native Win32 interface for Win NT & 2000

Used output format : Internal WAV Routines
Sample format : 44.100 Hz; 16 Bit; Stereo

TOC of the extracted CD

Track | Start | Length | Start sector | End sector
---------------------------------------------------------
1 | 0:00.32 | 3:51.23 | 32 | 17379
2 | 3:51.55 | 3:52.25 | 17380 | 34804
3 | 7:44.05 | 3:43.40 | 34805 | 51569
4 | 11:27.45 | 4:02.42 | 51570 | 69761
5 | 15:30.12 | 4:00.38 | 69762 | 87799
6 | 19:30.50 | 2:28.50 | 87800 | 98949
7 | 21:59.25 | 3:37.62 | 98950 | 115286
8 | 25:37.12 | 4:53.73 | 115287 | 137334
9 | 30:31.10 | 2:39.25 | 137335 | 149284
10 | 33:10.35 | 4:48.02 | 149285 | 170886
11 | 37:58.37 | 3:52.08 | 170887 | 188294
12 | 41:50.45 | 3:56.62 | 188295 | 206056
13 | 45:47.32 | 0:39.48 | 206057 | 209029

Range status and errors

Selected range

Filename D:\Music\Doro\Force Majeure\Doro - Force Majeure.wav

Peak level 100.0 %
Range quality 100.0 %
Copy CRC D8D42474
Copy OK

No errors occurred

End of status report
01 - Unholy Love
02 - I Had Too Much to Dream
03 - Rock On
04 - Only You
05 - I'll Be Holding On
06 - Something Wicked This Way Comes
07 - Rare Diamond
08 - Broken
09 - Alive
10 - Mirage

Отчёт EAC об извлечении, выполненном 25. сентября 2007, 0:00 для диска:
Doro / Doro

Дисковод: AXV CD/DVD-ROM Adapter: 2 ID: 0
Режим чтения: Достоверный (C2: нет, Точный поток: да, Отключение кэша: да)
Коррекция смещения при чтении: 6
Способность читать области Lead-in и Lead-out : Нет

Выходной формат: Внутренние WAV-операции
44.100 Гц; 16 бит; стерео

Другие параметры:
Заполнение пропущенных сэмплов тишиной : Да
Удаление блоков с тишиной в начале и конце : Нет
Встроенный Win32-интерфейс для Win NT/2000

Характеристики диапазона извлечения и сообщения об ошибках
Выбранный диапазон
Имя файла E:\LOSS\1990 - Doro - Doro\1990 - Doro - Doro APE\Doro - Doro.wav

Пиковый уровень 100.0 %
Качество диапазона 100.0 %
CRC 720198DE
Копирование... OK

Ошибок не произошло

Конец отчёта
01 - Cool Love
02 - You Gonna Break My Heart
03 - Even Angels Cry
04 - The Fortuneteller
05 - Live It
06 - Fall For Me Again
07 - Heartshaped Tattoo
08 - With The Wave Of Your Hand
09 - Hear Me
10 - I'll Make It On My Own
11 - Gettinґ Nowhere Without You
12 - I Know You By Heart

Exact Audio Copy V0.99 prebeta 3 from 28. July 2007

Отчёт EAC об извлечении, выполненном 23. октября 2007, 21:35

Doro / True At Heart

Дисковод: _NEC DVD_RW ND-3540A Adapter: 1 ID: 0

Режим чтения : Достоверность
Использование точного потока : Да
Отключение кэша аудио : Да
Использование указателей C2 : Нет

Коррекция смещения при чтении : 48
Способность читать области Lead-in и Lead-out : Нет
Заполнение пропущенных сэмплов тишиной : Да
Удаление блоков с тишиной в начале и конце : Нет
При вычислениях CRC использовались нулевые сэмплы : Да
Интерфейс : Установленный внешний ASPI-интерфейс

Выходной формат : Внутренние WAV-операции
Формат сэмплов : 44.100 Гц; 16 бит; стерео

TOC извлечённого CD

Трек | Старт | Длительность | Начальный сектор | Конечный сектор
---------------------------------------------------------------------
1 | 0:00.33 | 3:45.60 | 33 | 16967
2 | 3:46.18 | 3:42.70 | 16968 | 33687
3 | 7:29.13 | 4:47.62 | 33688 | 55274
4 | 12:17.00 | 5:15.05 | 55275 | 78904
5 | 17:32.05 | 4:12.58 | 78905 | 97862
6 | 21:44.63 | 4:12.72 | 97863 | 116834
7 | 25:57.60 | 3:44.73 | 116835 | 133707
8 | 29:42.58 | 4:52.05 | 133708 | 155612
9 | 34:34.63 | 3:44.50 | 155613 | 172462
10 | 38:19.38 | 4:07.42 | 172463 | 191029
11 | 42:27.05 | 4:20.25 | 191030 | 210554
12 | 46:47.30 | 5:03.48 | 210555 | 233327

Характеристики диапазона извлечения и сообщения об ошибках

Выбранный диапазон

Имя файла D:\current\Doro - True At Heart.wav

Пиковый уровень 97.2 %
Качество диапазона 100.0 %
CRC копии 7C848398
Копирование... OK

Ошибок не произошло

Конец отчёта
01 - All We Are
02 - Unholy Love
03 - Last Day Of My Life
04 - Fur Immer
05 - True As Steel
06 - Beyond The Trees
07 - East Meets West (live)
08 - Rare Diamond (live)
09 - You Hurt My Soul
10 - Hellbound
11 - Burning The Witches
12 - Out Of Control
13 - A Whinter Shade Of Pale
14 - Whithout You
15 - Love Song

EAC extrae el archivo del registro desde 12. Junio 2004, 20:55 para el CD
Doro & Warlock / Rare Diamonds

Unidad Usada: HL-DT-STDVD-ROM GDR8162B Adapter: 1 ID: 1
Modo de Lectura: Seguro sin C2, con Flujo Preciso, sin desactivar Cache
Correcciуn Combinada de Lectura/Escritura del Balance: 0
Leer por encima de la sesiуn inicial y final del CD : No

Usar Formato de Salida: C:\Flac 1.1.0\flac.exe (Usar Compresor definido)
32 kBit/s
Opciones adicionales de la Linea de comandos: -6 -V -T "artist=%a" -T "title=%t" -T "album=%g" -T "date=%y" -T "tracknumber=%n" -T "genre=%m" -T "comment=" %s

Otras Opciones:
Rellenar muestras pйrdidas del balance con silencios : Si
Eliminar bloques de silencios al principio y final : No
Interfaz ASPI externa instalada

Lнmite erroneo
Seleccionar Lнmite
Nombre de archivo C:\Doro & Warlock - Rare Diamonds\Doro & Warlock - Rare Diamonds.flac.wav

Nivel de pico 95.5 %
Calidad de lнmite 100.0 %
CRC B0D76106
Copia realizada

No existen errores

Fin de la informaciуn de estado
01 - Eye On You
02 - Bad Blood
03 - Last Day Of My Life
04 - Born To Bleed
05 - Cryin'
06 - You Ain't Lived
07 - So Alone Together
08 - All I Want
09 - Enough For You
10 - Heaven With You
11 - Don't Go
12 - Alles ist gut

Отчёт EAC об извлечении, выполненном 8. ноября 2008, 16:58 для диска:
Doro / Angels Never Die

Дисковод: TSSTcorpCDDVDW SH-S203D Adapter: 4 ID: 2
Режим чтения: Достоверный (C2: нет, Точный поток: да, Отключение кэша: да)
Коррекция смещения при чтении: 6
Способность читать области Lead-in и Lead-out : Нет

Выходной формат: Внутренние WAV-операции
44.100 Гц; 16 бит; стерео

Другие параметры:
Заполнение пропущенных сэмплов тишиной : Да
Удаление блоков с тишиной в начале и конце : Нет
Встроенный Win32-интерфейс для Win NT/2000

Характеристики диапазона извлечения и сообщения об ошибках
Выбранный диапазон
Имя файла C:\LOSSLESS\Doro 1993 - Angels Never Die\Doro - Angels Never Die.wav

Пиковый уровень 100.0 %
Качество диапазона 100.0 %
CRC C92A294C
Копирование... OK

Ошибок не произошло

Конец отчёта
01 - I Rule The Ruins
02 - Hellbound
03 - Only You
04 - Bad Blood
05 - So Alone Together
06 - Fall For Me Again
07 - Fur Immer
08 - Metal Tango
09 - Let's Rock Forever
10 - Eye On You
11 - All We Are
12 - Enough For You
13 - I Am What I Am
14 - Whenever I Think Of You
15 - Children Of The Night
16 - Burning The Witches
17 - Alles Ist Gut

Exact Audio Copy V0.99 prebeta 3 from 28. July 2007

EAC extraction logfile from 20. December 2007, 23:31

Doro / Live

Used drive : TSSTcorpCD/DVDW SH-S182M Adapter: 4 ID: 0

Read mode : Secure
Utilize accurate stream : Yes
Defeat audio cache : Yes
Make use of C2 pointers : No

Read offset correction : 6
Overread into Lead-In and Lead-Out : No
Fill up missing offset samples with silence : Yes
Delete leading and trailing silent blocks : No
Null samples used in CRC calculations : Yes
Used interface : Installed external ASPI interface

Used output format : Internal WAV Routines
Sample format : 44.100 Hz; 16 Bit; Stereo

TOC of the extracted CD

Track | Start | Length | Start sector | End sector
---------------------------------------------------------
1 | 0:00.33 | 5:02.42 | 33 | 22724
2 | 5:03.00 | 2:47.55 | 22725 | 35304
3 | 7:50.55 | 4:38.40 | 35305 | 56194
4 | 12:29.20 | 4:24.33 | 56195 | 76027
5 | 16:53.53 | 5:33.40 | 76028 | 101042
6 | 22:27.18 | 4:34.62 | 101043 | 121654
7 | 27:02.05 | 6:11.60 | 121655 | 149539
8 | 33:13.65 | 4:13.28 | 149540 | 168542
9 | 37:27.18 | 2:37.02 | 168543 | 180319
10 | 40:04.20 | 3:00.40 | 180320 | 193859
11 | 43:04.60 | 4:39.63 | 193860 | 214847
12 | 47:44.48 | 5:17.00 | 214848 | 238622
13 | 53:01.48 | 3:00.07 | 238623 | 252129
14 | 56:01.55 | 4:30.40 | 252130 | 272419
15 | 60:32.20 | 4:17.48 | 272420 | 291742
16 | 64:49.68 | 3:47.22 | 291743 | 308789
17 | 68:37.15 | 5:05.65 | 308790 | 331729

Range status and errors

Selected range

Filename D:\Release\Doro - Live\Doro - Live.wav

Peak level 100.0 %
Range quality 99.9 %
Copy CRC 7A897AFB
Copy OK

No errors occurred

AccurateRip summary
Track 1 cannot be verified as accurate (confidence 4) [108E3703], AccurateRip returned [3F403AE2]
Track 2 cannot be verified as accurate (confidence 4) [A23C9DF0], AccurateRip returned [03AECB9D]
Track 3 cannot be verified as accurate (confidence 4) [4E4FF53F], AccurateRip returned [3DF0EA44]
Track 4 cannot be verified as accurate (confidence 4) [D4492BE7], AccurateRip returned [FF5974D6]
Track 5 cannot be verified as accurate (confidence 4) [3C205958], AccurateRip returned [63396E9E]
Track 6 cannot be verified as accurate (confidence 4) [9B1BEEA0], AccurateRip returned [71820EEC]
Track 7 cannot be verified as accurate (confidence 4) [6CA26160], AccurateRip returned [4D799DCB]
Track 8 cannot be verified as accurate (confidence 4) [97489B8A], AccurateRip returned [EB35F6AC]
Track 9 cannot be verified as accurate (confidence 4) [8567AAAD], AccurateRip returned [A524307F]
Track 10 cannot be verified as accurate (confidence 4) [7FD08FD6], AccurateRip returned [DC287A9A]
Track 11 cannot be verified as accurate (confidence 4) [E5C67314], AccurateRip returned [7819DE67]
Track 12 cannot be verified as accurate (confidence 4) [87F96BDB], AccurateRip returned [19FCED54]
Track 13 cannot be verified as accurate (confidence 4) [5CBF18B2], AccurateRip returned [212D93D7]
Track 14 cannot be verified as accurate (confidence 4) [6FB06C2A], AccurateRip returned [352687B6]
Track 15 cannot be verified as accurate (confidence 4) [50FAA8F9], AccurateRip returned [B4FB19D3]
Track 16 cannot be verified as accurate (confidence 4) [16950595], AccurateRip returned [E64D7198]
Track 17 cannot be verified as accurate (confidence 4) [6C3EC514], AccurateRip returned [1065AAFE]
No tracks could be verified as accurate
You may have a different pressing from the one(s) in the database

End of status report
01 - Tie Me Up
02 - The Want
03 - Ceremony
04 - Machine II Machine
05 - Are They Comin' For Me
06 - Can't Stop Thinking About You
07 - Don't Mistake It For Love
08 - Desperately
09 - Love Is A Thrill
10 - Light In The Window
11 - Welcome To The Tribe
12 - Like Whiskey Straight
13 - In Freiheit Stirbt Mein Herz
14 - Ceremony (Rattlesnake Bite Mix)

Exact Audio Copy V0.99 prebeta 4 from 23. January 2008

Отчёт EAC об извлечении, выполненном 13. марта 2009, 22:19

Doro / Machine II Machine

Дисковод: MATSHITADVD-RAM UJ-850S Adapter: 0 ID: 1

Режим чтения : Достоверность
Использование точного потока : Да
Отключение кэша аудио : Да
Использование указателей C2 : Нет

Коррекция смещения при чтении : 102
Способность читать области Lead-in и Lead-out : Нет
Заполнение пропущенных сэмплов тишиной : Да
Удаление блоков с тишиной в начале и конце : Нет
При вычислениях CRC использовались нулевые сэмплы : Да
Интерфейс : Установленный внешний ASPI-интерфейс

Выходной формат : Внутренние WAV-операции
Формат сэмплов : 44.100 Гц; 16 бит; стерео

TOC извлечённого CD

Трек | Старт | Длительность | Начальный сектор | Конечный сектор
---------------------------------------------------------------------
1 | 0:00.32 | 4:59.48 | 32 | 22504
2 | 5:00.05 | 6:31.02 | 22505 | 51831
3 | 11:31.07 | 4:58.25 | 51832 | 74206
4 | 16:29.32 | 5:03.35 | 74207 | 96966
5 | 21:32.67 | 4:40.45 | 96967 | 118011
6 | 26:13.37 | 4:19.38 | 118012 | 137474
7 | 30:33.00 | 4:23.60 | 137475 | 157259
8 | 34:56.60 | 4:59.42 | 157260 | 179726
9 | 39:56.27 | 4:07.65 | 179727 | 198316
10 | 44:04.17 | 4:25.10 | 198317 | 218201
11 | 48:29.27 | 3:25.48 | 218202 | 233624
12 | 51:55.00 | 4:39.47 | 233625 | 254596
13 | 56:34.47 | 5:46.58 | 254597 | 280604
14 | 62:21.30 | 5:06.02 | 280605 | 303556
15 | 67:27.32 | 5:16.00 | 303557 | 327256

Характеристики диапазона извлечения и сообщения об ошибках

Выбранный диапазон

Имя файла D:\Audio\Doro - Machine II Machine.wav

Пиковый уровень 99.9 %
Качество диапазона 100.0 %
CRC копии EDC67109
Копирование... OK

Ошибок не произошло

AccurateRip: сводка
Трек 1 точность не определена (достоверность 2) [69EFECDD], AccurateRip вернул [74D42007]
Трек 2 точность не определена (достоверность 2) [3D4838A2], AccurateRip вернул [8637308D]
Трек 3 точность не определена (достоверность 2) [30C47D3C], AccurateRip вернул [0108E581]
Трек 4 точность не определена (достоверность 2) [F11A9DA6], AccurateRip вернул [AE880F2B]
Трек 5 точность не определена (достоверность 2) [E3585D14], AccurateRip вернул [C75A8B70]
Трек 6 точность не определена (достоверность 2) [1A2A1671], AccurateRip вернул [11910FCC]
Трек 7 точность не определена (достоверность 2) [71F08ED3], AccurateRip вернул [62131E03]
Трек 8 точность не определена (достоверность 2) [41924DAF], AccurateRip вернул [93D6B836]
Трек 9 точность не определена (достоверность 2) [9A4FE783], AccurateRip вернул [FCB2A225]
Трек 10 точность не определена (достоверность 2) [5261F017], AccurateRip вернул [FB158C92]
Трек 11 точность не определена (достоверность 2) [66B79C16], AccurateRip вернул [D0EFAE01]
Трек 12 точность не определена (достоверность 2) [FAD4556E], AccurateRip вернул [EE7462B8]
Трек 13 точность не определена (достоверность 2) [04352E7E], AccurateRip вернул [0C0DDAC1]
Трек 14 точность не определена (достоверность 2) [E835918A], AccurateRip вернул [0F10DB0F]
Трек 15 точность не определена (достоверность 2) [BC1FDB4F], AccurateRip вернул [D8AC1603]
Ни один трек не прошёл проверки на точность
В вашей базе может быть иной вариант штамповки диска

Конец отчёта
01 - The Want (Single Edit)
02 - Machine II Machine (Electric Mix)
03 - Ceremony (Krupps Mix)
04 - Tie me up (Hard & Fast Mix)
05 - The Want (Give it up Mix)
06 - Ceremony (Metal Hammer Mix)
07 - Machine II Machine (Big Phat Mix)
08 - The Want (5 A.M. Mix)
09 - Emotional Suicide (Caue Man Mix)

Exact Audio Copy V0.99 prebeta 3 from 28. July 2007

Отчёт EAC об извлечении, выполненном 1. марта 2008, 2:18

Doro / Machine II Machine (Electric Club Mixes)

Дисковод: HL-DT-STDVDRRW GSA-2166D Adapter: 1 ID: 1

Режим чтения : Достоверность
Использование точного потока : Да
Отключение кэша аудио : Да
Использование указателей C2 : Нет

Коррекция смещения при чтении : 102
Способность читать области Lead-in и Lead-out : Нет
Заполнение пропущенных сэмплов тишиной : Да
Удаление блоков с тишиной в начале и конце : Нет
При вычислениях CRC использовались нулевые сэмплы : Нет
Интерфейс : Установленный внешний ASPI-интерфейс

Выходной формат : Пользовательский кодировщик
Выбранный битрейт : 896 kBit/s
Качество : Высокий
Добавление ID3-тэга : Да
Утилита сжатия : C:\Program Files\Exact Audio Copy\FLAC\FLAC.EXE
Дополнительные параметры : -T "artist=%a" -T "title=%t" -T "album=%g" -T "date=%y" -T "tracknumber=%n" -T "genre=%m" %s

TOC извлечённого CD

Трек | Старт | Длительность | Начальный сектор | Конечный сектор
---------------------------------------------------------------------
1 | 0:00.32 | 4:05.73 | 32 | 18479
2 | 4:06.30 | 5:27.50 | 18480 | 43054
3 | 9:34.05 | 5:06.07 | 43055 | 66011
4 | 14:40.12 | 5:22.50 | 66012 | 90211
5 | 20:02.62 | 6:49.05 | 90212 | 120891
6 | 26:51.67 | 3:57.48 | 120892 | 138714
7 | 30:49.40 | 5:41.20 | 138715 | 164309
8 | 36:30.60 | 5:41.27 | 164310 | 189911
9 | 42:12.12 | 4:29.53 | 189912 | 210139

Характеристики диапазона извлечения и сообщения об ошибках

Выбранный диапазон

Имя файла H:\Doro - Machine II Machine (Electric Club Mixes).wav

Пиковый уровень 100.0 %
Качество диапазона 100.0 %
CRC копии 6D3C140B
Копирование... OK

Ошибок не произошло

Конец отчёта
01 - Do You Like It ?
02 - Brutal And Effective
03 - Love Me In Black
04 - Pain
05 - Tausend mal gelebt
06 - Terrorvision
07 - I Don't Care
08 - Kiss Me Good Bye
09 - I Want You Back
10 - Long Way Home
11 - Barracuda
12 - Poison Arrow
13 - Prisoner Of Love
14 - Like An Angel

Отчёт EAC об извлечении, выполненном 25. августа 2007, 19:47 для диска:
Doro / Love Me In Black

Дисковод: HL-DT-STRW/DVD GCC-H21N Adapter: 0 ID: 0
Режим чтения: Достоверный (C2: нет, Точный поток: да, Отключение кэша: нет)
Коррекция смещения при чтении: 6
Способность читать области Lead-in и Lead-out : Нет

Выходной формат: Внутренние WAV-операции
44.100 Гц; 16 бит; стерео

Другие параметры:
Заполнение пропущенных сэмплов тишиной : Да
Удаление блоков с тишиной в начале и конце : Нет
Встроенный Win32-интерфейс для Win NT/2000

Характеристики диапазона извлечения и сообщения об ошибках
Выбранный диапазон
Имя файла E:\LOSS\1998 - Doro - Love Me In Black\Doro - Love Me In Black.wav

Пиковый уровень 97.0 %
Качество диапазона 100.0 %
CRC DFBCB716
Копирование... OK

Ошибок не произошло

Конец отчёта
01 - Kiss Me Like A Cobra
02 - Dedication
03 - Burn It Up
04 - Give Me A Reason
05 - Who You Love
06 - Scarred
07 - Ich Will Alles
08 - White Wedding
09 - I Wanna Live
10 - Love Me Forever
11 - Fuel
12 - Constant Danger
13 - Black Rose
14 - Now Or Never (Hope In The Darkest Hour)
15 - Danke

Exact Audio Copy V0.99 prebeta 3 from 28. July 2007

Отчёт EAC об извлечении, выполненном 23. октября 2007, 21:46

Doro / Calling The Wild

Дисковод: _NEC DVD_RW ND-3540A Adapter: 1 ID: 0

Режим чтения : Достоверность
Использование точного потока : Да
Отключение кэша аудио : Да
Использование указателей C2 : Нет

Коррекция смещения при чтении : 48
Способность читать области Lead-in и Lead-out : Нет
Заполнение пропущенных сэмплов тишиной : Да
Удаление блоков с тишиной в начале и конце : Нет
При вычислениях CRC использовались нулевые сэмплы : Да
Интерфейс : Установленный внешний ASPI-интерфейс

Выходной формат : Внутренние WAV-операции
Формат сэмплов : 44.100 Гц; 16 бит; стерео

TOC извлечённого CD

Трек | Старт | Длительность | Начальный сектор | Конечный сектор
---------------------------------------------------------------------
1 | 0:00.00 | 3:18.30 | 0 | 14879
2 | 3:18.30 | 3:53.34 | 14880 | 32388
3 | 7:11.64 | 2:47.18 | 32389 | 44931
4 | 9:59.07 | 4:20.46 | 44932 | 64477
5 | 14:19.53 | 3:52.01 | 64478 | 81878
6 | 18:11.54 | 4:39.43 | 81879 | 102846
7 | 22:51.22 | 2:25.58 | 102847 | 113779
8 | 25:17.05 | 4:36.59 | 113780 | 134538
9 | 29:53.64 | 2:43.19 | 134539 | 146782
10 | 32:37.08 | 5:16.15 | 146783 | 170497
11 | 37:53.23 | 3:53.64 | 170498 | 188036
12 | 41:47.12 | 3:39.49 | 188037 | 204510
13 | 45:26.61 | 3:43.15 | 204511 | 221250
14 | 49:10.01 | 3:54.50 | 221251 | 238850
15 | 53:04.51 | 2:57.23 | 238851 | 252148

Характеристики диапазона извлечения и сообщения об ошибках

Выбранный диапазон

Имя файла D:\current\Doro - Calling The Wild.wav

Пиковый уровень 99.2 %
Качество диапазона 100.0 %
CRC копии 6BB2934B
Копирование... OK

Ошибок не произошло

Конец отчёта
01 - Burn It Up / Thunder Mix
02 - Burn It Up / Lightning Mix
03 - Burn It Up / Burning Mix
04 - Burn It Up / Burning Hot Mix
05 - Burn It Up / Lightning Strikes Again Mix
06 - U.S. National Anthem

Exact Audio Copy V0.99 prebeta 3 from 28. July 2007

EAC extraction logfile from 12. December 2007, 14:08

Doro / Burn It Up (Bird Of Fire)

Used drive : PLEXTOR CD-R PREMIUM Adapter: 5 ID: 3

Read mode : Secure
Utilize accurate stream : Yes
Defeat audio cache : Yes
Make use of C2 pointers : No

Read offset correction : 30
Overread into Lead-In and Lead-Out : Yes
Fill up missing offset samples with silence : Yes
Delete leading and trailing silent blocks : No
Null samples used in CRC calculations : Yes
Used interface : Installed external ASPI interface

Used output format : Internal WAV Routines
Sample format : 44.100 Hz; 16 Bit; Stereo

TOC of the extracted CD

Track | Start | Length | Start sector | End sector
---------------------------------------------------------
1 | 0:00.00 | 3:11.54 | 0 | 14378
2 | 3:11.54 | 3:04.32 | 14379 | 28210
3 | 6:16.11 | 3:18.31 | 28211 | 43091
4 | 9:34.42 | 3:20.70 | 43092 | 58161
5 | 12:55.37 | 2:43.07 | 58162 | 70393
6 | 15:38.44 | 1:38.02 | 70394 | 77745

Range status and errors

Selected range

Filename D:\Release\Doro - Burn It Up (Bird Of Fire)\Doro - Burn It Up (Bird Of Fire).wav

Peak level 100.0 %
Range quality 100.0 %
Copy CRC 7707FF74
Copy OK

No errors occurred

AccurateRip summary
Track 1 not present in database
Track 2 not present in database
Track 3 not present in database
Track 4 not present in database
Track 5 not present in database
Track 6 not present in database
None of the tracks are present in the AccurateRip database

End of status report
01 - White Wedding (single version)
02 - White Wedding (album version)
03 - I Adore You

Exact Audio Copy V0.99 prebeta 3 from 28. July 2007

EAC extraction logfile from 19. January 2008, 4:29

Doro / White Wedding

Used drive : TSSTcorpCD/DVDW SH-S182M Adapter: 1 ID: 0

Read mode : Secure
Utilize accurate stream : Yes
Defeat audio cache : Yes
Make use of C2 pointers : No

Read offset correction : 6
Overread into Lead-In and Lead-Out : No
Fill up missing offset samples with silence : Yes
Delete leading and trailing silent blocks : No
Null samples used in CRC calculations : Yes
Used interface : Native Win32 interface for Win NT & 2000

Used output format : Internal WAV Routines
Sample format : 44.100 Hz; 16 Bit; Stereo

TOC of the extracted CD

Track | Start | Length | Start sector | End sector
---------------------------------------------------------
1 | 0:00.00 | 3:57.72 | 0 | 17846
2 | 3:57.72 | 4:39.66 | 17847 | 38837
3 | 8:37.63 | 3:21.22 | 38838 | 53934
4 | 14:31.10 | 4:34.38 | 65335 | 85922

Range status and errors

Selected range

Filename H:\TEMP\Doro - White Wedding\Doro - White Wedding.wav

Peak level 100.0 %
Range quality 100.0 %
Copy CRC 90C34E81
Copy OK

No errors occurred

AccurateRip summary
Track 1 not present in database
Track 2 not present in database
Track 3 not present in database
None of the tracks are present in the AccurateRip database

End of status report
01 Fight
02 Always Live To Win
03 Descent (Vocals [Guest] - Pete Steele)
04 Salvaje
05 Undying
06 Legends Never Die
07 Rock Before We Bleed
08 Sister Darkness
09 Wild Heart
10 Fight By Your Side
11 Chained
12 Hoffnung
13 Song For Me

Exact Audio Copy V0.99 prebeta 3 from 28. July 2007

Отчёт EAC об извлечении, выполненном 23. октября 2007, 21:14

Unknown Artist / Unknown Title

Дисковод: _NEC DVD_RW ND-3540A Adapter: 1 ID: 0

Режим чтения : Достоверность
Использование точного потока : Да
Отключение кэша аудио : Да
Использование указателей C2 : Нет

Коррекция смещения при чтении : 48
Способность читать области Lead-in и Lead-out : Нет
Заполнение пропущенных сэмплов тишиной : Да
Удаление блоков с тишиной в начале и конце : Нет
При вычислениях CRC использовались нулевые сэмплы : Да
Интерфейс : Установленный внешний ASPI-интерфейс

Выходной формат : Внутренние WAV-операции
Формат сэмплов : 44.100 Гц; 16 бит; стерео

TOC извлечённого CD

Трек | Старт | Длительность | Начальный сектор | Конечный сектор
---------------------------------------------------------------------
1 | 0:00.00 | 4:10.06 | 0 | 18755
2 | 4:10.06 | 3:02.39 | 18756 | 32444
3 | 7:12.45 | 4:02.16 | 32445 | 50610
4 | 11:14.61 | 2:48.33 | 50611 | 63243
5 | 14:03.19 | 4:08.24 | 63244 | 81867
6 | 18:11.43 | 5:20.42 | 81868 | 105909
7 | 23:32.10 | 4:21.68 | 105910 | 125552
8 | 27:54.03 | 4:46.31 | 125553 | 147033
9 | 32:40.34 | 4:32.40 | 147034 | 167473
10 | 37:12.74 | 3:49.74 | 167474 | 184722
11 | 41:02.73 | 4:18.33 | 184723 | 204105
12 | 45:21.31 | 4:39.65 | 204106 | 225095
13 | 50:01.21 | 4:31.01 | 225096 | 245421
14 | 57:04.22 | 14:41.63 | 256822 | 322959

Характеристики диапазона извлечения и сообщения об ошибках

Выбранный диапазон

Имя файла D:\current\Unknown Artist - Unknown Title.wav

Пиковый уровень 100.0 %
Качество диапазона 100.0 %
CRC копии 91828137
Копирование... OK

Ошибок не произошло

Конец отчёта
01 - I Rule The Rules
02 - Metal Tango
03 - Breaking The Law
04 - All We Are
05 - Fur Immer
06 - Let Love Rain On Me
07 - Burn It Up
08 - Tausendmal Gelebt
09 - I'm in Love With You
10 - Allways Live To Win
11 - Undying
12 - Love Me In Black
13 - She's Like Thunder
14 - The Last Goodbye
15 - The Final

Отчёт EAC об извлечении, выполненном 11. ноября 2007, 10:29 для диска:
Doro / Classic Diamonds

Дисковод: ASUS DRW-1814BLT Adapter: 1 ID: 2
Режим чтения: Достоверный (C2: нет, Точный поток: да, Отключение кэша: да)
Коррекция смещения при чтении: 6
Способность читать области Lead-in и Lead-out : Нет

Выходной формат: Внутренние WAV-операции
44.100 Гц; 16 бит; стерео

Другие параметры:
Заполнение пропущенных сэмплов тишиной : Да
Удаление блоков с тишиной в начале и конце : Нет
Встроенный Win32-интерфейс для Win NT/2000

Характеристики диапазона извлечения и сообщения об ошибках
Выбранный диапазон
Имя файла F:\LOSS\2004 - Doro - Classic Diamonds (Ltd. Edt.)\Doro - Classic Diamonds.wav

Пиковый уровень 100.0 %
Качество диапазона 100.0 %
CRC 1DDF6501
Копирование... OK

Ошибок не произошло

Конец отчёта
01 - Let Love Rain On Me (Radio Version)
02 - Llueva En Mi Tu Amor (Spanish Version)
03 - Pluie D'amour (French Version)
04 - Breaking The Law (Non-Album Track)
05 - I Rule The Ruins (Radio Version)
06 - Rare Diamond (Non-Album Track Acoustic Version)

Exact Audio Copy V0.99 prebeta 3 from 28. July 2007

EAC extraction logfile from 19. December 2007, 17:30

Doro / Let Love Rain On Me

Used drive : PLEXTOR CD-R PREMIUM Adapter: 5 ID: 2

Read mode : Secure
Utilize accurate stream : Yes
Defeat audio cache : Yes
Make use of C2 pointers : No

Read offset correction : 30
Overread into Lead-In and Lead-Out : Yes
Fill up missing offset samples with silence : Yes
Delete leading and trailing silent blocks : No
Null samples used in CRC calculations : Yes
Used interface : Installed external ASPI interface

Used output format : Internal WAV Routines
Sample format : 44.100 Hz; 16 Bit; Stereo

TOC of the extracted CD

Track | Start | Length | Start sector | End sector
---------------------------------------------------------
1 | 0:00.00 | 3:52.64 | 0 | 17463
2 | 3:52.64 | 3:53.08 | 17464 | 34946
3 | 7:45.72 | 3:53.40 | 34947 | 52461
4 | 11:39.37 | 4:23.45 | 52462 | 72231
5 | 16:03.07 | 4:05.58 | 72232 | 90664
6 | 20:08.65 | 3:38.17 | 90665 | 107031
7 | 26:19.07 | 5:50.31 | 118432 | 144712

Range status and errors

Selected range

Filename D:\Release\Doro - Let Love Rain On Me\Doro - Let Love Rain On Me.wav

Peak level 97.7 %
Range quality 100.0 %
Copy CRC CC609C1A
Copy OK

No errors occurred

AccurateRip summary
Track 1 accurately ripped (confidence 1) [1A69BB4F]
Track 2 accurately ripped (confidence 1) [8E3D75C7]
Track 3 accurately ripped (confidence 1) [757115B2]
Track 4 accurately ripped (confidence 1) [723A2D6C]
Track 5 accurately ripped (confidence 1) [2457C625]
Track 6 accurately ripped (confidence 1) [947221ED]
All tracks accurately ripped

End of status report
01 - We're Like Thunder (feat. Regina Halmich)
02 - She's Like Thunder (new Version 2005)
03 - She's Like Thunder (orginal fight hymn)
04 - She's Like Thunder (classic diamonds mix)

Exact Audio Copy V0.99 prebeta 3 from 28. July 2007

EAC extraction logfile from 13. December 2007, 2:24

Doro / We're like thunder

Used drive : PLEXTOR CD-R PREMIUM Adapter: 5 ID: 3

Read mode : Secure
Utilize accurate stream : Yes
Defeat audio cache : Yes
Make use of C2 pointers : No

Read offset correction : 30
Overread into Lead-In and Lead-Out : Yes
Fill up missing offset samples with silence : Yes
Delete leading and trailing silent blocks : No
Null samples used in CRC calculations : Yes
Used interface : Installed external ASPI interface

Used output format : Internal WAV Routines
Sample format : 44.100 Hz; 16 Bit; Stereo

TOC of the extracted CD

Track | Start | Length | Start sector | End sector
---------------------------------------------------------
1 | 0:00.00 | 3:13.33 | 0 | 14507
2 | 3:13.33 | 3:13.06 | 14508 | 28988
3 | 6:26.39 | 2:05.30 | 28989 | 38393
4 | 8:31.69 | 3:52.70 | 38394 | 55863

Range status and errors

Selected range

Filename D:\Release\Doro - We're like thunder\Doro - We're like thunder.wav

Peak level 99.7 %
Range quality 100.0 %
Copy CRC EF32AFB5
Copy OK

No errors occurred

AccurateRip summary
Track 1 not present in database
Track 2 not present in database
Track 3 not present in database
Track 4 not present in database
None of the tracks are present in the AccurateRip database

End of status report
01 - You're My Family
02 - Haunted Heart
03 - Strangers Yesterday
04 - Thunderspell
05 - Warrior Soul
06 - Heaven I See
07 - Creep Into My Brain
08 - Above The Ashes
09 - My Majesty
10 - In Liebe Und Freundschaft
11 - Ungebrochen
12 - Shine On
13 - Angel In The Dark (bonus track)
14 - 1999 (bonus track)

EAC extraction logfile from 26. April 2007, 17:07 for CD
DORO PESCH / Warrior Soul (Ltd. Edition)

Used drive : _NEC DVD_RW ND-3500AG Adapter: 1 ID: 1
Read mode : Secure with NO C2, accurate stream, disable cache
Read offset correction : 48
Overread into Lead-In and Lead-Out : No

Used output format : C:\Archivos de programa\Exact Audio Copy\MAC.EXE (Monkey's Audio Lossless Encoder)
High Lossless Compression

Other options :
Fill up missing offset samples with silence : Yes
Delete leading and trailing silent blocks : No
Native Win32 interface for Win NT & 2000

Range status and errors
Selected range
Filename C:\My Music\DORO PESCH - Warrior Soul (Ltd. Edition)\APE\CDImage.wav

Peak level 98.8 %
Range quality 100.0 %
CRC C4EE6A15
Copy OK

No errors occured

End of status report
01 - All We Are
02 - Thunderspell
03 - Everything's Lost
04 - On My Own (feat. Marc Storace & Luke Gasser)
05 - Babe, I'm Gonna Leave You

Exact Audio Copy V0.99 prebeta 3 from 28. July 2007

EAC extraction logfile from 16. December 2007, 2:45

Doro / All We Are - The Fight

Used drive : PLEXTOR CD-R PREMIUM Adapter: 5 ID: 3

Read mode : Secure
Utilize accurate stream : Yes
Defeat audio cache : Yes
Make use of C2 pointers : No

Read offset correction : 30
Overread into Lead-In and Lead-Out : Yes
Fill up missing offset samples with silence : Yes
Delete leading and trailing silent blocks : No
Null samples used in CRC calculations : Yes
Used interface : Installed external ASPI interface

Used output format : Internal WAV Routines
Sample format : 44.100 Hz; 16 Bit; Stereo

TOC of the extracted CD

Track | Start | Length | Start sector | End sector
---------------------------------------------------------
1 | 0:00.00 | 3:03.59 | 0 | 13783
2 | 3:03.59 | 4:40.55 | 13784 | 34838
3 | 7:44.39 | 3:53.33 | 34839 | 52346
4 | 11:37.72 | 3:40.70 | 52347 | 68916
5 | 15:18.67 | 7:11.04 | 68917 | 101245
6 | 25:01.71 | 31:40.61 | 112646 | 255206

Range status and errors

Selected range

Filename D:\Release\Doro - All We Are - The Fight\Doro - All We Are - The Fight.wav

Peak level 100.0 %
Range quality 100.0 %
Copy CRC FB95E5A5
Copy OK

No errors occurred

AccurateRip summary
Track 1 accurately ripped (confidence 1) [B63E1594]
Track 2 accurately ripped (confidence 1) [0F455076]
Track 3 accurately ripped (confidence 1) [1593DCFC]
Track 4 accurately ripped (confidence 1) [D858ADC2]
Track 5 accurately ripped (confidence 1) [95945085]
All tracks accurately ripped

End of status report
CD 1:

01 - I Adore You
02 - I Want More
03 - Alone Again
04 - Children Of The Night
05 - Dirty Diamonds
06 - In Freiheit Stribt Mein Herz (Heart Version)
07 - Kiss Of Fire
08 - Love Me In Black (Electric Radio Track)
09 - Pain
10 - You Got Me Singing
11 - Terrorvision (Desert Storm Remix)
12 - Tie Me Up
13 - Egypt (The Chains Are You)
14 - Burn It Up (Bird Of Fire) (Lightning Strikes Again Mix)
15 - For Love And Friendship
16 - Rip Me Apart
17 - Rock Angel

CD 2:

01 - Lonely Wolf
02 - Ceremony (Original Mix)
03 - On My Own
04 - Everything's Lost
05 - All We Are (Live)
06 - Never Get Out Of This World Alive
07 - Thunderspell (Live)
08 - Babe I'm Gonna Leave You
09 - Rare Diamond (Live)
10 - Shed No Tears
11 - The Fortuneteller (Live)
12 - Ceremony (Mix Long Extended Hammer Version By DIE KRUPPS)
13 - Song For Me
14 - Angel In The Dark
15 - 1999
16 - USA National Offense
17 - Wings Of Freedom

auCDtect: CD records authenticity detector, version 0.8.2
Copyright (c) 2004 Oleg Berngardt. All rights reserved.
Copyright (c) 2004 Alexander Djourik. All rights reserved.
------------------------------------------------------------
Processing file: [DORO - Metal Queen (B-Sides & Rarities) CD1.wav]
Detected average hi-boundary frequency: 2.019935e+004 Hz
Detected average lo-boundary frequency: 1.496332e+004 Hz
Detected average hi-cut frequency: 2.103378e+004 Hz
Detected average lo-cut frequency: 1.669987e+004 Hz
Maximum probablis boundary frequency: 2.189100e+004 Hz
Coefficient of nonlinearity of a phase: 5.940129e-003
First order smothness: 4.700795e-001
Second order smothness: 6.692000e-001

------------------------------------------------------------
This track looks like CDDA with probability 99%
auCDtect: CD records authenticity detector, version 0.8.2
Copyright (c) 2004 Oleg Berngardt. All rights reserved.
Copyright (c) 2004 Alexander Djourik. All rights reserved.
------------------------------------------------------------
Processing file: [01 Lonely Wolf.wav]
Detected average hi-boundary frequency: 2.021879e+004 Hz
Detected average lo-boundary frequency: 1.290844e+004 Hz
Detected average hi-cut frequency: 2.152458e+004 Hz
Detected average lo-cut frequency: 8.768909e+003 Hz
Maximum probablis boundary frequency: 2.189100e+004 Hz
Coefficient of nonlinearity of a phase: 8.163232e-001
First order smothness: 3.062745e-001
Second order smothness: 5.235294e-001

------------------------------------------------------------
This track looks like CDDA with probability 100%

------------------------------------------------------------
Processing file: [02 Ceremony (Original Mix).wav]
Detected average hi-boundary frequency: 2.062893e+004 Hz
Detected average lo-boundary frequency: 1.460527e+004 Hz
Detected average hi-cut frequency: 2.173638e+004 Hz
Detected average lo-cut frequency: 1.390132e+004 Hz
Maximum probablis boundary frequency: 2.189100e+004 Hz
Coefficient of nonlinearity of a phase: 5.155123e-001
First order smothness: 4.429530e-001
Second order smothness: 4.401895e-001

------------------------------------------------------------
This track looks like CDDA with probability 100%

------------------------------------------------------------
Processing file: [03 On My Own.wav]
Detected average hi-boundary frequency: 2.010266e+004 Hz
Detected average lo-boundary frequency: 1.251275e+004 Hz
Detected average hi-cut frequency: 2.185364e+004 Hz
Detected average lo-cut frequency: 1.249757e+004 Hz
Maximum probablis boundary frequency: 2.189100e+004 Hz
Coefficient of nonlinearity of a phase: 9.593966e-001
First order smothness: 3.292683e-001
Second order smothness: 6.080740e-001

------------------------------------------------------------
This track looks like CDDA with probability 99%

------------------------------------------------------------
Processing file: [04 Everything's Lost.wav]
Detected average hi-boundary frequency: 2.015930e+004 Hz
Detected average lo-boundary frequency: 1.304331e+004 Hz
Detected average hi-cut frequency: 2.157737e+004 Hz
Detected average lo-cut frequency: 9.920017e+003 Hz
Maximum probablis boundary frequency: 2.189100e+004 Hz
Coefficient of nonlinearity of a phase: 8.418300e-001
First order smothness: 3.121990e-001
Second order smothness: 5.794543e-001

------------------------------------------------------------
This track looks like CDDA with probability 100%

------------------------------------------------------------
Processing file: [05 All We Are (Live).wav]
Detected average hi-boundary frequency: 2.032390e+004 Hz
Detected average lo-boundary frequency: 1.381610e+004 Hz
Detected average hi-cut frequency: 2.132742e+004 Hz
Detected average lo-cut frequency: 1.131960e+004 Hz
Maximum probablis boundary frequency: 2.189100e+004 Hz
Coefficient of nonlinearity of a phase: 2.461637e-001
First order smothness: 3.684749e-001
Second order smothness: 3.909928e-001

------------------------------------------------------------
This track looks like CDDA with probability 100%

------------------------------------------------------------
Processing file: [06 Never Get Out Of This World Alive.wav]
Detected average hi-boundary frequency: 2.028852e+004 Hz
Detected average lo-boundary frequency: 1.366065e+004 Hz
Detected average hi-cut frequency: 2.158299e+004 Hz
Detected average lo-cut frequency: 1.360046e+004 Hz
Maximum probablis boundary frequency: 2.189100e+004 Hz
Coefficient of nonlinearity of a phase: 3.300463e-001
First order smothness: 3.489673e-001
Second order smothness: 6.415663e-001

------------------------------------------------------------
This track looks like CDDA with probability 100%

------------------------------------------------------------
Processing file: [07 Thunderspell (Live).wav]
Detected average hi-boundary frequency: 2.014025e+004 Hz
Detected average lo-boundary frequency: 1.311318e+004 Hz
Detected average hi-cut frequency: 2.150149e+004 Hz
Detected average lo-cut frequency: 8.754227e+003 Hz
Maximum probablis boundary frequency: 2.189100e+004 Hz
Coefficient of nonlinearity of a phase: 6.220339e-001
First order smothness: 3.246667e-001
Second order smothness: 4.473333e-001

------------------------------------------------------------
This track looks like CDDA with probability 100%

------------------------------------------------------------
Processing file: [08 Babe I'm Gonna Leave You.wav]
Detected average hi-boundary frequency: 2.008934e+004 Hz
Detected average lo-boundary frequency: 1.317539e+004 Hz
Detected average hi-cut frequency: 2.169291e+004 Hz
Detected average lo-cut frequency: 9.625422e+003 Hz
Maximum probablis boundary frequency: 2.189100e+004 Hz
Coefficient of nonlinearity of a phase: 7.698228e-001
First order smothness: 3.552007e-001
Second order smothness: 6.555891e-001

------------------------------------------------------------
This track looks like CDDA with probability 100%

------------------------------------------------------------
Processing file: [09 Rare Diamond (Live).wav]
Detected average hi-boundary frequency: 2.052752e+004 Hz
Detected average lo-boundary frequency: 1.587998e+004 Hz
Detected average hi-cut frequency: 2.124681e+004 Hz
Detected average lo-cut frequency: 1.448129e+004 Hz
Maximum probablis boundary frequency: 2.114800e+004 Hz
Coefficient of nonlinearity of a phase: 3.832341e-001
First order smothness: 4.447037e-001
Second order smothness: 5.767615e-001

------------------------------------------------------------
This track looks like CDDA with probability 100%

------------------------------------------------------------
Processing file: [10 Shed No Tears.wav]
Detected average hi-boundary frequency: 2.039297e+004 Hz
Detected average lo-boundary frequency: 1.514586e+004 Hz
Detected average hi-cut frequency: 2.093458e+004 Hz
Detected average lo-cut frequency: 1.736492e+004 Hz
Maximum probablis boundary frequency: 2.189100e+004 Hz
Coefficient of nonlinearity of a phase: 1.140932e-001
First order smothness: 4.290473e-001
Second order smothness: 7.564957e-001

------------------------------------------------------------
This track looks like CDDA with probability 100%

------------------------------------------------------------
Processing file: [11 The Fortuneteller (Live).wav]
Detected average hi-boundary frequency: 1.889084e+004 Hz
Detected average lo-boundary frequency: 1.595323e+004 Hz
Detected average hi-cut frequency: 1.887699e+004 Hz
Detected average lo-cut frequency: 1.750564e+004 Hz
Maximum probablis boundary frequency: 1.684700e+004 Hz
Coefficient of nonlinearity of a phase: 1.030772e-002
First order smothness: 6.206437e-001
Second order smothness: 6.761376e-001

------------------------------------------------------------
This track looks like MPEG with probability 95%

------------------------------------------------------------
Processing file: [12 Ceremony (Mix Long Extended Hammer Version By DIE KRUPPS).wav]
Detected average hi-boundary frequency: 2.016238e+004 Hz
Detected average lo-boundary frequency: 1.328218e+004 Hz
Detected average hi-cut frequency: 2.181602e+004 Hz
Detected average lo-cut frequency: 1.032362e+004 Hz
Maximum probablis boundary frequency: 2.189100e+004 Hz
Coefficient of nonlinearity of a phase: 5.598075e-001
First order smothness: 3.680832e-001
Second order smothness: 4.325894e-001

------------------------------------------------------------
This track looks like CDDA with probability 99%

------------------------------------------------------------
Processing file: [13 Song For Me.wav]
Detected average hi-boundary frequency: 2.013653e+004 Hz
Detected average lo-boundary frequency: 1.472595e+004 Hz
Detected average hi-cut frequency: 2.061416e+004 Hz
Detected average lo-cut frequency: 1.722135e+004 Hz
Maximum probablis boundary frequency: 2.141200e+004 Hz
Coefficient of nonlinearity of a phase: 6.601069e-002
First order smothness: 4.447884e-001
Second order smothness: 8.596491e-001

------------------------------------------------------------
This track looks like CDDA with probability 76%

------------------------------------------------------------
Processing file: [14 Angel In The Dark.wav]
Detected average hi-boundary frequency: 2.036904e+004 Hz
Detected average lo-boundary frequency: 1.431398e+004 Hz
Detected average hi-cut frequency: 2.173268e+004 Hz
Detected average lo-cut frequency: 1.223038e+004 Hz
Maximum probablis boundary frequency: 2.189100e+004 Hz
Coefficient of nonlinearity of a phase: 3.258869e-001
First order smothness: 3.976693e-001
Second order smothness: 6.321923e-001

------------------------------------------------------------
This track looks like CDDA with probability 100%

------------------------------------------------------------
Processing file: [15 1999.wav]
Detected average hi-boundary frequency: 2.028847e+004 Hz
Detected average lo-boundary frequency: 1.350976e+004 Hz
Detected average hi-cut frequency: 2.161281e+004 Hz
Detected average lo-cut frequency: 1.282149e+004 Hz
Maximum probablis boundary frequency: 2.189100e+004 Hz
Coefficient of nonlinearity of a phase: 1.528329e-001
First order smothness: 3.573986e-001
Second order smothness: 6.622912e-001

------------------------------------------------------------
This track looks like CDDA with probability 100%

------------------------------------------------------------
Processing file: [16 USA National Offense.wav]
Detected average hi-boundary frequency: 1.995934e+004 Hz
Detected average lo-boundary frequency: 1.400833e+004 Hz
Detected average hi-cut frequency: 2.126285e+004 Hz
Detected average lo-cut frequency: 9.941492e+003 Hz
Maximum probablis boundary frequency: 2.189600e+004 Hz
Coefficient of nonlinearity of a phase: 7.555519e-001
First order smothness: 3.017408e-001
Second order smothness: 6.286267e-001

------------------------------------------------------------
This track looks like CDDA with probability 100%

------------------------------------------------------------
Processing file: [17 Wings Of Freedom.wav]
Detected average hi-boundary frequency: 2.024666e+004 Hz
Detected average lo-boundary frequency: 1.318030e+004 Hz
Detected average hi-cut frequency: 2.186373e+004 Hz
Detected average lo-cut frequency: 1.304129e+004 Hz
Maximum probablis boundary frequency: 2.189100e+004 Hz
Coefficient of nonlinearity of a phase: 3.725253e-001
First order smothness: 3.774332e-001
Second order smothness: 6.496206e-001

------------------------------------------------------------
This track looks like CDDA with probability 100%
01 - The Night Of The Warlock
02 - Running From The Devil
03 - Celebrate
04 - Caught In A Battle
05 - Herzblut
06 - On The Run
07 - Walking With The Angels (feat. Tara Turunen)
08 - I Lay My Head Upon My Sword
09 - It Kills Me
10 - Long Lost For Love
11 - 25 Years
12 - Wildfire (bonus treck)
13 - You Won My Love (bonus treck)

Exact Audio Copy V0.99 prebeta 4 from 23. January 2008

Отчёт EAC об извлечении, выполненном 3. февраля 2009, 19:52

DORO / Fear No Evil (Ltd.Ed.)

Дисковод: _NEC DVD_RW ND-3500AG Adapter: 3 ID: 0

Режим чтения : Достоверность
Использование точного потока : Да
Отключение кэша аудио : Да
Использование указателей C2 : Нет

Коррекция смещения при чтении : 48
Способность читать области Lead-in и Lead-out : Нет
Заполнение пропущенных сэмплов тишиной : Да
Удаление блоков с тишиной в начале и конце : Нет
При вычислениях CRC использовались нулевые сэмплы : Да
Интерфейс : Установленный внешний ASPI-интерфейс

Выходной формат : Внутренние WAV-операции
Формат сэмплов : 44.100 Гц; 16 бит; стерео

TOC извлечённого CD

Трек | Старт | Длительность | Начальный сектор | Конечный сектор
---------------------------------------------------------------------
1 | 0:00.00 | 5:43.49 | 0 | 25773
2 | 5:43.49 | 3:37.21 | 25774 | 42069
3 | 9:20.70 | 4:55.33 | 42070 | 64227
4 | 14:16.28 | 3:09.73 | 64228 | 78475
5 | 17:26.26 | 4:40.36 | 78476 | 99511
6 | 22:06.62 | 4:42.33 | 99512 | 120694
7 | 26:49.20 | 4:55.43 | 120695 | 142862
8 | 31:44.63 | 3:37.38 | 142863 | 159175
9 | 35:22.26 | 4:28.05 | 159176 | 179280
10 | 39:50.31 | 3:27.05 | 179281 | 194810
11 | 43:17.36 | 4:48.35 | 194811 | 216445
12 | 48:05.71 | 4:24.01 | 216446 | 236246
13 | 52:29.72 | 4:12.63 | 236247 | 255209
14 | 59:14.60 | 9:10.31 | 266610 | 307890

Характеристики диапазона извлечения и сообщения об ошибках

Выбранный диапазон

Имя файла D:\DORO - Fear No Evil (Ltd.Ed.).wav

Пиковый уровень 100.0 %
Качество диапазона 100.0 %
CRC теста 4A90401E
CRC копии 4A90401E
Копирование... OK

Ошибок не произошло

AccurateRip: сводка
Трек 1 нет в базе данных
Трек 2 нет в базе данных
Трек 3 нет в базе данных
Трек 4 нет в базе данных
Трек 5 нет в базе данных
Трек 6 нет в базе данных
Трек 7 нет в базе данных
Трек 8 нет в базе данных
Трек 9 нет в базе данных
Трек 10 нет в базе данных
Трек 11 нет в базе данных
Трек 12 нет в базе данных
Трек 13 нет в базе данных
Ни одного трека нет в базе AccurateRip

Конец отчёта
2010 - Fear No Evil (Blue Edition)

01. The Night Of The Warlock
02. Running From The Devi
03. Celebrate
04. Caught In A Battle
05. Herzblut
06. On The Run
07. Walking With The Angels
08. I Lay My Head Upon My Sword
09. It Kills Me
10. Long Lost For Love
11. 25 Years

Bonus Tracks:

12. All We Are (2007)
13. On My Own

2008 - Celebrate - The Night Of The Warlock (EP)

01. Celebrate
02. Celebrate (feat. Biff Byford)
03. Celebrate (Full Metal Version)
04. The Night of the Warlock
05. Rescue Me

2008 - Herzblut (EP)

01. Herzblut (Single Version)
02. Herzblut 04:39
03. A Fond Le Coeur - Herzblut (French)
04. Te Doy Mi Corazon - Herzblut (Spanish)
05. Eu Dou-Te O Meu Coracao - Herzblut (Portuguese)
06. Share My Fate

Exact Audio Copy V0.99 prebeta 5 from 4. May 2009

EAC extraction logfile from 3. December 2010, 19:16

Doro / Fear No Evil (Blue Edition)

Used drive : ASUS DRW-22B2S Adapter: 0 ID: 1

Read mode : Secure
Utilize accurate stream : Yes
Defeat audio cache : Yes
Make use of C2 pointers : No

Read offset correction : 6
Overread into Lead-In and Lead-Out : No
Fill up missing offset samples with silence : Yes
Delete leading and trailing silent blocks : No
Null samples used in CRC calculations : Yes
Used interface : Native Win32 interface for Win NT & 2000

Used output format : Internal WAV Routines
Sample format : 44.100 Hz; 16 Bit; Stereo

TOC of the extracted CD

Track | Start | Length | Start sector | End sector
---------------------------------------------------------
1 | 0:00.00 | 5:43.71 | 0 | 25795
2 | 5:43.71 | 3:38.04 | 25796 | 42149
3 | 9:22.00 | 4:55.44 | 42150 | 64318
4 | 14:17.44 | 3:09.74 | 64319 | 78567
5 | 17:27.43 | 4:41.50 | 78568 | 99692
6 | 22:09.18 | 4:43.67 | 99693 | 120984
7 | 26:53.10 | 4:56.20 | 120985 | 143204
8 | 31:49.30 | 3:38.73 | 143205 | 159627
9 | 35:28.28 | 4:29.60 | 159628 | 179862
10 | 39:58.13 | 3:29.18 | 179863 | 195555
11 | 43:27.31 | 4:47.46 | 195556 | 217126
12 | 48:15.02 | 3:04.32 | 217127 | 230958
13 | 51:19.34 | 3:40.71 | 230959 | 247529

Range status and errors

Selected range

Filename C:\Doro - 2010 - Fear No Evil (Blue Edition).wav

Peak level 100.0 %
Range quality 99.9 %
Copy CRC 107D8578
Copy OK

No errors occurred

AccurateRip summary
Track 1 not present in database
Track 2 not present in database
Track 3 not present in database
Track 4 not present in database
Track 5 not present in database
Track 6 not present in database
Track 7 not present in database
Track 8 not present in database
Track 9 not present in database
Track 10 not present in database
Track 11 not present in database
Track 12 not present in database
Track 13 not present in database
None of the tracks are present in the AccurateRip database

End of status report
Exact Audio Copy V0.99 prebeta 5 from 4. May 2009

EAC extraction logfile from 3. December 2010, 19:36

Doro / -Celebrate- The Night Of The Warlock

Used drive : ASUS DRW-22B2S Adapter: 0 ID: 1

Read mode : Secure
Utilize accurate stream : Yes
Defeat audio cache : Yes
Make use of C2 pointers : No

Read offset correction : 6
Overread into Lead-In and Lead-Out : No
Fill up missing offset samples with silence : Yes
Delete leading and trailing silent blocks : No
Null samples used in CRC calculations : Yes
Used interface : Native Win32 interface for Win NT & 2000

Used output format : Internal WAV Routines
Sample format : 44.100 Hz; 16 Bit; Stereo

TOC of the extracted CD

Track | Start | Length | Start sector | End sector
---------------------------------------------------------
1 | 0:00.00 | 4:56.27 | 0 | 22226
2 | 4:56.27 | 4:56.20 | 22227 | 44446
3 | 9:52.47 | 4:56.46 | 44447 | 66692
4 | 14:49.18 | 5:13.50 | 66693 | 90217
5 | 20:02.68 | 3:50.32 | 90218 | 107499

Range status and errors

Selected range

Filename C:\Doro - 2008 - Celebrate- The Night Of The Warlock.wav

Peak level 97.9 %
Range quality 100.0 %
Copy CRC B3616C5F
Copy OK

No errors occurred

AccurateRip summary
Track 1 accurately ripped (confidence 6) [BFCD6DDE]
Track 2 accurately ripped (confidence 6) [CFF5677B]
Track 3 accurately ripped (confidence 6) [814F291A]
Track 4 accurately ripped (confidence 6) [29C0BE38]
Track 5 accurately ripped (confidence 6) [80ECA354]
All tracks accurately ripped

End of status report
Exact Audio Copy V0.99 prebeta 5 from 4. May 2009

EAC extraction logfile from 3. December 2010, 18:15

Doro / Herzblut

Used drive : ASUS DRW-22B2S Adapter: 0 ID: 1

Read mode : Secure
Utilize accurate stream : Yes
Defeat audio cache : Yes
Make use of C2 pointers : No

Read offset correction : 6
Overread into Lead-In and Lead-Out : No
Fill up missing offset samples with silence : Yes
Delete leading and trailing silent blocks : No
Null samples used in CRC calculations : Yes
Used interface : Native Win32 interface for Win NT & 2000

Used output format : Internal WAV Routines
Sample format : 44.100 Hz; 16 Bit; Stereo

TOC of the extracted CD

Track | Start | Length | Start sector | End sector
---------------------------------------------------------
1 | 0:00.00 | 3:43.48 | 0 | 16772
2 | 3:43.48 | 4:39.41 | 16773 | 37738
3 | 8:23.14 | 3:59.01 | 37739 | 55664
4 | 12:22.15 | 4:39.38 | 55665 | 76627
5 | 17:01.53 | 4:07.25 | 76628 | 95177
6 | 21:09.03 | 3:05.13 | 95178 | 109065

Range status and errors

Selected range

Filename C:\Doro - 2008 - Herzblut.wav

Peak level 98.9 %
Range quality 100.0 %
Copy CRC 07B5CD95
Copy OK

No errors occurred

AccurateRip summary
Track 1 not present in database
Track 2 not present in database
Track 3 not present in database
Track 4 not present in database
Track 5 not present in database
Track 6 not present in database
None of the tracks are present in the AccurateRip database

End of status report


В раздаче присутствуют Enhanced CD, содержащие видео клипы!

Не без гордости хочу заметить, что, возможно, моя раздача по Доро самая полная (по крайней мере на торрентс. ру такой дискографии нет - только отдельные альбомы и то не все). Материал взят из разных источников - в основном файлообменник kpnemo.ru (релизер vknish). На некоторых альбомах тэги прописывались вручную, поэтому ваше "спасибо" лишним не будет..
ah


Последний раз редактировалось: Paul_Fear (2010-12-13 23:24), всего редактировалось 6 раз(а)
Профиль  ЛС 
razok

Стаж: 15 лет
Сообщений: 19
Откуда: камень прилетит ?

Создавать темы razok написал(а)
18-Сен-2009 01:02 (спустя 2 дня 13 часов)
Достойная работа землянин !!!
Профиль  ЛС 
Paul_Fear ®

Стаж: 15 лет
Сообщений: 59
Откуда: Land of the Metal Gods

Создавать темы Paul_Fear ® написал(а)
18-Сен-2009 08:52 (спустя 7 часов)
razok
Я стараюсь ah
Профиль  ЛС 
Tehnic777

Стаж: 15 лет
Сообщений: 1

Создавать темы Tehnic777 написал(а)
09-Дек-2009 10:37 (спустя 2 месяца 21 день)
КРУТО!!! Агромадное спасибо!!! ay
Профиль  ЛС 
Paul_Fear ®

Стаж: 15 лет
Сообщений: 59
Откуда: Land of the Metal Gods

Создавать темы Paul_Fear ® написал(а)
09-Дек-2009 12:10 (спустя 1 час 33 минуты)
Tehnic777
Приятного прослушивания! ad
Клип на песню "Herzblut" с последнего альбома в HD
Профиль  ЛС 
Paul_Fear ®

Стаж: 15 лет
Сообщений: 59
Откуда: Land of the Metal Gods

Создавать темы Paul_Fear ® написал(а)
13-Дек-2010 22:59 (спустя 1 год)
Дискография переделана, пополнена и перезалита!

Список изменений:

1) Убрал из раздачи лишние файлы;
2) Указал полную информацию о каждом альбоме;
3) Исправил ошибки в cue файлах, устранил другие мелкие недочеты;
4) Перевел все во Flac;
5) Добавил коллекционное издание последнего альбома.

Скачавшим придется полностью перекачать раздачу (сорри)! Всем приятного прослушивания и не забывайте покупать диски любимых музыкантов!
Профиль  ЛС 
Terminator

Стаж: 15 лет
Сообщений: 213
Откуда: Russia

Создавать темы Terminator написал(а)
13-Дек-2010 23:05 (спустя 5 минут)
Круто забираю спасибо большое! ay
Профиль  ЛС 
Paul_Fear ®

Стаж: 15 лет
Сообщений: 59
Откуда: Land of the Metal Gods

Создавать темы Paul_Fear ® написал(а)
13-Дек-2010 23:07 (спустя 2 минуты)
Terminator
Пожалуйста! Может быть стоит прилепить?
ah
Профиль  ЛС 
Terminator

Стаж: 15 лет
Сообщений: 213
Откуда: Russia

Создавать темы Terminator написал(а)
13-Дек-2010 23:10 (спустя 3 минуты)
Paul_Fear
Прилепил!:)
Профиль  ЛС 
Paul_Fear ®

Стаж: 15 лет
Сообщений: 59
Откуда: Land of the Metal Gods

Создавать темы Paul_Fear ® написал(а)
13-Дек-2010 23:13 (спустя 2 минуты)
Terminator
Спасибо! =)
Профиль  ЛС 
dimqA

Стаж: 15 лет
Сообщений: 19
Откуда: Russia

Создавать темы dimqA написал(а)
20-Мар-2011 22:48 (спустя 3 месяца 6 дней)
качну как-нить
места катастрофически не хватает блин ac
Профиль  ЛС 
Rомчик

Стаж: 14 лет
Сообщений: 33

Создавать темы Rомчик написал(а)
18-Фев-2012 16:26 (спустя 10 месяцев 28 дней)
bf
Профиль  ЛС 
TIMURTAS

Стаж: 14 лет
Сообщений: 5
Откуда: ??

Создавать темы TIMURTAS написал(а)
02-Мар-2012 12:42 (спустя 12 дней)
Можно вопрос, а чем lossles отличается от mp3 ?
Профиль  ЛС 
Paul_Fear ®

Стаж: 15 лет
Сообщений: 59
Откуда: Land of the Metal Gods

Создавать темы Paul_Fear ® написал(а)
10-Мар-2012 22:05 (спустя 8 дней)
TIMURTAS
Lossless - сжатие без потерь (можно разжать обратно и получить оригинальный .wav, бит в бит).

Цитата:

В отличие от аудио-кодеков, обеспечивающих сжатие с потерями (MP3, WMA, Ogg Vorbis) FLAC не удаляет никакой информации из аудиопотока и подходит как для прослушивания музыки на высококачественной звуковоспроизводящей аппаратуре, так и для архивирования аудиоколлекции.
Существуют и другие lossless-аудиокодеки, я предпочитаю TAK.
Профиль  ЛС 
alx76

Стаж: 14 лет
Сообщений: 13

Создавать темы alx76 написал(а)
20-Фев-2015 20:47 (спустя 2 года 11 месяцев)
Раздайте пожалуйста.
Профиль  ЛС 
Показать сообщения:     

Вы не можете начинать темы
Вы не можете отвечать на сообщения
Вы не можете редактировать свои сообщения
Вы не можете удалять свои сообщения
Вы не можете голосовать в опросах
Вы не можете прикреплять файлы к сообщениям
Вы не можете скачивать файлы

Текущее время: 20-Июл 15:42
Часовой пояс: UTC + 5