Джей и молчаливый Боб: Перезагрузка / Jay and Silent Bob Reboot (Кевин Смит / Kevin Smith) [2019, США, комедия, BDRip-AVC] + Sub Rus + Original Eng

Автор Сообщение
Linkus ®

Стаж: 7 лет 9 месяцев
Сообщений: 90

Создавать темы Linkus ® написал(а)
13-Янв-2020 18:56
Джей и молчаливый Боб: Перезагрузка / Jay and Silent Bob Reboot
Страна: США
Жанр: комедия
Год выпуска: 2019
Продолжительность: 01:45:19
Перевод: Субтитры
Cубтитры: русские
Формат субтитров: Отключаемые
Оригинальная аудиодорожка: английский
Режиссер: Кевин Смит / Kevin Smith
В ролях: Джейсон Мьюз, Кевин Смит, Крис Хемсворт, Бен Аффлек, Мэтт Дэймон, Розарио Доусон, Вэл Килмер, Мелисса Бенойст, Шеннон Элизабет, Дидрих Бадер
Описание: Неугомонные приятели Джей и молчаливый Боб отправляются в Голливуд, когда узнают, что студия готовит новую экранизацию комикса о Пыхаре и Хронике, прототипами которых стали они сами.
Качество: BDRip-AVC 576p
Формат видео: MKV
Видео: x264 1024x428 (2:40:1) 23.976 fps 3 706 kb/s
Аудио: AC3 48.0 kHz 6 channels 448 kb/s [ENG]

MediaInfo

General
Unique ID : 296012630207098798088642757955470949819 (0xDEB1F576C09CD8DFB3D9D72AB786FDBB)
Complete name : /home/linkus/Videos/MOVIES/Jay.and.Silent.Bob.Reboot.2019.576p.BluRay.x264-CasStudio.mkv
Format : Matroska
Format version : Version 4
File size : 3.06 GiB
Duration : 1 h 45 min
Overall bit rate : 4 157 kb/s
Movie name : Jay and Silent Bob Reboot [2019]
Encoded date : UTC 2020-01-13 13:44:50
Writing application : mkvmerge v42.0.0 ('Overtime') 64-bit
Writing library : libebml v1.3.10 + libmatroska v1.5.2
Cover : Yes
Attachments : cover.jpg
Video
ID : 1
Format : AVC
Format/Info : Advanced Video Codec
Format profile : High@L4.1
Format settings : CABAC / 16 Ref Frames
Format settings, CABAC : Yes
Format settings, Reference frames : 16 frames
Codec ID : V_MPEG4/ISO/AVC
Duration : 1 h 45 min
Bit rate : 3 706 kb/s
Width : 1 024 pixels
Height : 428 pixels
Display aspect ratio : 2.40:1
Frame rate mode : Constant
Frame rate : 23.976 (24000/1001) FPS
Color space : YUV
Chroma subsampling : 4:2:0
Bit depth : 8 bits
Scan type : Progressive
Bits/(Pixel*Frame) : 0.353
Stream size : 2.73 GiB (89%)
Writing library : x264 core 157 r2935 545de2f
Encoding settings : cabac=1 / ref=16 / deblock=1:-3:-3 / analyse=0x3:0x133 / me=umh / subme=10 / psy=1 / psy_rd=1.00:0.00 / mixed_ref=1 / me_range=32 / chroma_me=1 / trellis=2 / 8x8dct=1 / cqm=0 / deadzone=21,11 / fast_pskip=0 / chroma_qp_offset=-2 / threads=13 / lookahead_threads=3 / sliced_threads=0 / nr=0 / decimate=0 / interlaced=0 / bluray_compat=0 / constrained_intra=0 / bframes=16 / b_pyramid=2 / b_adapt=2 / b_bias=0 / direct=3 / weightb=1 / open_gop=0 / weightp=2 / keyint=240 / keyint_min=24 / scenecut=40 / intra_refresh=0 / rc_lookahead=60 / rc=crf / mbtree=0 / crf=15.5 / qcomp=0.60 / qpmin=0 / qpmax=69 / qpstep=4 / vbv_maxrate=62500 / vbv_bufsize=78125 / crf_max=0.0 / nal_hrd=none / filler=0 / ip_ratio=1.40 / pb_ratio=1.30 / aq=2:1.00
Language : English
Default : Yes
Forced : No
Color range : Limited
Color primaries : BT.709
Transfer characteristics : BT.709
Matrix coefficients : BT.709
Audio
ID : 2
Format : AC-3
Format/Info : Audio Coding 3
Commercial name : Dolby Digital
Codec ID : A_AC3
Duration : 1 h 45 min
Bit rate mode : Constant
Bit rate : 448 kb/s
Channel(s) : 6 channels
Channel layout : L R C LFE Ls Rs
Sampling rate : 48.0 kHz
Frame rate : 31.250 FPS (1536 SPF)
Compression mode : Lossy
Stream size : 337 MiB (11%)
Language : English
Service kind : Complete Main
Default : Yes
Forced : No
Text #1
ID : 3
Format : UTF-8
Codec ID : S_TEXT/UTF8
Codec ID/Info : UTF-8 Plain Text
Duration : 1 h 43 min
Bit rate : 151 b/s
Count of elements : 1923
Stream size : 115 KiB (0%)
Language : Russian
Default : Yes
Forced : No
Text #2
ID : 4
Format : UTF-8
Codec ID : S_TEXT/UTF8
Codec ID/Info : UTF-8 Plain Text
Duration : 1 h 44 min
Bit rate : 100 b/s
Count of elements : 1961
Stream size : 76.7 KiB (0%)
Language : English
Default : No
Forced : No
Text #3
ID : 5
Format : UTF-8
Codec ID : S_TEXT/UTF8
Codec ID/Info : UTF-8 Plain Text
Duration : 1 h 43 min
Bit rate : 91 b/s
Count of elements : 1811
Stream size : 69.0 KiB (0%)
Language : Spanish
Default : No
Forced : No
Menu
00:00:00.000 : :Chapter 1
00:03:38.677 : :Chapter 2
00:09:30.653 : :Chapter 3
00:16:32.658 : :Chapter 4
00:24:10.324 : :Chapter 5
00:30:43.633 : :Chapter 6
00:40:34.015 : :Chapter 7
00:44:53.941 : :Chapter 8
00:48:46.715 : :Chapter 9
00:54:34.021 : :Chapter 10
00:59:26.772 : :Chapter 11
01:07:03.228 : :Chapter 12
01:10:01.948 : :Chapter 13
01:16:08.481 : :Chapter 14
01:25:37.215 : :Chapter 15
01:32:39.387 : :Chapter 16

Скриншоты

Профиль  ЛС 
Ььь

Стаж: 12 лет
Сообщений: 30
Откуда: Уфа

Создавать темы Ььь написал(а)
13-Янв-2020 22:16 (спустя 3 часа)
Культовый фильм. Подождем нормальную версию
Профиль  ЛС 
MakSut

Стаж: 11 лет
Сообщений: 30
Откуда: Орск

Создавать темы MakSut написал(а)
13-Янв-2020 23:57 (спустя 1 час 41 минута)
Первую часть смотрел еще молодым, вроде воспоминания хорошие.
НО вторую я не держал и полчаса, по мне чистое г.....
Профиль  ЛС 
Показать сообщения:     

Вы не можете начинать темы
Вы не можете отвечать на сообщения
Вы не можете редактировать свои сообщения
Вы не можете удалять свои сообщения
Вы не можете голосовать в опросах
Вы не можете прикреплять файлы к сообщениям
Вы не можете скачивать файлы

Текущее время: 06-Май 17:28
Часовой пояс: UTC + 5