(Rap, Hip-Hop, Hardcore Rap, Midwest Rap) Eminem - The Marshall Mathers LP 2 (Deluxe Edition) Explicit - 2013, FLAC (tracks), lossless

Автор Сообщение
SiLeNt ®

Стаж: 11 лет
Сообщений: 591

Создавать темы SiLeNt ® написал(а)
06-Ноя-2013 12:53
Eminem - The Marshall Mathers LP 2 (Deluxe Edition) Explicit


Страна: USA
Жанр: Rap, Hip-Hop, Hardcore Rap, Midwest Rap
Год выпуска: 2013
Формат: FLAC (tracks)
Битрейт аудио: lossless
Продолжительность: 01:42:10
Трэклист:
Прoдолжительность: 01:18:01
Треклист:
01. Bad Guy (feat. Sarah Jaffe) (07:14)
02. Parking Lot (Skit) (00:55)
03. Rhyme or Reason (05:01)
04. So Much Better (04:21)
05. Survival (feat. Liz Rodrigues) (04:32)
06. Legacy (feat. Polina Goudieva) (04:56)
07. Asshole (feat. Skylar Grey) (04:48)
08. Berzerk (03:58)
09. Rap God (06:03)
10. Brainless (04:46)
11. Stronger Than I Was (05:36)
12. The Monster (feat. Rihanna) (04:10)
13. So Far... (05:17)
14. Love Game (feat. Kendrick Lamar) (04:56)
15. Headlights (feat. Nate Ruess) (05:43)
16. Evil Twin (05:56)
Прoдолжительность: 00:24:09
Треклист:
01. Baby (04:23)
02. Desperation (feat. Jamie N Commons) (03:56)
03. Groundhog Day (04:53)
04. Beautiful Pain (feat. Sia) (04:25)
05. Wicked Ways (feat. X Ambassadors) (06:32)




Exact Audio Copy V1.0 beta 3 from 29. August 2011

EAC extraction logfile from 4. November 2013, 20:47

Eminem / The Marshall Mathers LP 2

Used drive : HL-DT-STBDDVDRW GBC-H20L Adapter: 2 ID: 2

Read mode : Secure
Utilize accurate stream : Yes
Defeat audio cache : Yes
Make use of C2 pointers : No

Read offset correction : 667
Overread into Lead-In and Lead-Out : No
Fill up missing offset samples with silence : Yes
Delete leading and trailing silent blocks : No
Null samples used in CRC calculations : Yes
Used interface : Native Win32 interface for Win NT & 2000
Gap handling : Appended to previous track

Used output format : User Defined Encoder
Selected bitrate : 1024 kBit/s
Quality : High
Add ID3 tag : No
Command line compressor : C:\Program Files (x86)\Exact Audio Copy\Flac\flac.exe
Additional command line options : -8 -V -T "ARTIST=%artist%" -T "TITLE=%title%" -T "ALBUM=%albumtitle%" -T "DATE=%year%" -T "TRACKNUMBER=%tracknr%" -T "GENRE=%genre%" -T "PERFORMER=%albuminterpret%" -T "COMPOSER=%composer%" %haslyrics%--tag-from-file=LYRICS="%lyricsfile%"%haslyrics% -T "ALBUMARTIST=%albumartist%" -T "DISCNUMBER=%cdnumber%" -T "TOTALDISCS=%totalcds%" -T "TOTALTRACKS=%numtracks%" -T "COMMENT=%comment%" %source% -o %dest%

TOC of the extracted CD

Track | Start | Length | Start sector | End sector
---------------------------------------------------------
1 | 0:00.00 | 7:14.07 | 0 | 32556
2 | 7:14.07 | 0:55.25 | 32557 | 36706
3 | 8:09.32 | 5:01.54 | 36707 | 59335
4 | 13:11.11 | 4:21.29 | 59336 | 78939
5 | 17:32.40 | 4:33.67 | 78940 | 99481
6 | 22:06.32 | 4:56.22 | 99482 | 121703
7 | 27:02.54 | 4:27.10 | 121704 | 141738
8 | 31:29.64 | 3:58.62 | 141739 | 159650
9 | 35:28.51 | 6:03.40 | 159651 | 186915
10 | 41:32.16 | 4:46.39 | 186916 | 208404
11 | 46:18.55 | 5:36.39 | 208405 | 233643
12 | 51:55.19 | 4:10.14 | 233644 | 252407
13 | 56:05.33 | 5:17.44 | 252408 | 276226
14 | 61:23.02 | 4:56.71 | 276227 | 298497
15 | 66:19.73 | 5:43.03 | 298498 | 324225
16 | 72:03.01 | 5:57.02 | 324226 | 351002

Track 1

Filename C:\EAC Rips\Eminem - The Marshall Mathers LP 2 (Deluxe Edition) (2013) [FLAC]\CD 1\01 - Bad Guy.wav

Pre-gap length 0:00:02.00

Peak level 98.8 %
Extraction speed 1.3 X
Track quality 100.0 %
Test CRC 8CE4745E
Copy CRC 8CE4745E
Track not present in AccurateRip database
Copy OK

Track 2

Filename C:\EAC Rips\Eminem - The Marshall Mathers LP 2 (Deluxe Edition) (2013) [FLAC]\CD 1\02 - Parking Lot (Skit).wav

Peak level 92.0 %
Extraction speed 0.8 X
Track quality 100.0 %
Test CRC FE7FE1EB
Copy CRC FE7FE1EB
Track not present in AccurateRip database
Copy OK

Track 3

Filename C:\EAC Rips\Eminem - The Marshall Mathers LP 2 (Deluxe Edition) (2013) [FLAC]\CD 1\03 - Rhyme Or Reason.wav

Peak level 98.8 %
Extraction speed 1.4 X
Track quality 100.0 %
Test CRC CA37CFF2
Copy CRC CA37CFF2
Track not present in AccurateRip database
Copy OK

Track 4

Filename C:\EAC Rips\Eminem - The Marshall Mathers LP 2 (Deluxe Edition) (2013) [FLAC]\CD 1\04 - So Much Better.wav

Peak level 98.8 %
Extraction speed 1.5 X
Track quality 100.0 %
Test CRC 5E0FC42C
Copy CRC 5E0FC42C
Track not present in AccurateRip database
Copy OK

Track 5

Filename C:\EAC Rips\Eminem - The Marshall Mathers LP 2 (Deluxe Edition) (2013) [FLAC]\CD 1\05 - Survival.wav

Peak level 99.6 %
Extraction speed 1.4 X
Track quality 99.9 %
Test CRC 37DBC832
Copy CRC 37DBC832
Track not present in AccurateRip database
Copy OK

Track 6

Filename C:\EAC Rips\Eminem - The Marshall Mathers LP 2 (Deluxe Edition) (2013) [FLAC]\CD 1\06 - Legacy.wav

Pre-gap length 0:00:01.48

Peak level 98.8 %
Extraction speed 1.7 X
Track quality 100.0 %
Test CRC DAE549A1
Copy CRC DAE549A1
Track not present in AccurateRip database
Copy OK

Track 7

Filename C:\EAC Rips\Eminem - The Marshall Mathers LP 2 (Deluxe Edition) (2013) [FLAC]\CD 1\07 - Asshole (feat. Skylar Grey).wav

Peak level 94.1 %
Extraction speed 1.8 X
Track quality 100.0 %
Test CRC 9A2BA0F1
Copy CRC 9A2BA0F1
Track not present in AccurateRip database
Copy OK

Track 8

Filename C:\EAC Rips\Eminem - The Marshall Mathers LP 2 (Deluxe Edition) (2013) [FLAC]\CD 1\08 - Berzerk.wav

Peak level 100.0 %
Extraction speed 1.9 X
Track quality 100.0 %
Test CRC 40232910
Copy CRC 40232910
Track not present in AccurateRip database
Copy OK

Track 9

Filename C:\EAC Rips\Eminem - The Marshall Mathers LP 2 (Deluxe Edition) (2013) [FLAC]\CD 1\09 - Rap God.wav

Pre-gap length 0:00:00.08

Peak level 98.8 %
Extraction speed 1.8 X
Track quality 99.9 %
Test CRC 0CC06ACF
Copy CRC 0CC06ACF
Track not present in AccurateRip database
Copy OK

Track 10

Filename C:\EAC Rips\Eminem - The Marshall Mathers LP 2 (Deluxe Edition) (2013) [FLAC]\CD 1\10 - Brainless.wav

Peak level 98.8 %
Extraction speed 1.8 X
Track quality 99.9 %
Test CRC C45D3228
Copy CRC C45D3228
Track not present in AccurateRip database
Copy OK

Track 11

Filename C:\EAC Rips\Eminem - The Marshall Mathers LP 2 (Deluxe Edition) (2013) [FLAC]\CD 1\11 - Stronger Than I Was.wav

Peak level 98.9 %
Extraction speed 2.2 X
Track quality 100.0 %
Test CRC 903F487A
Copy CRC 903F487A
Track not present in AccurateRip database
Copy OK

Track 12

Filename C:\EAC Rips\Eminem - The Marshall Mathers LP 2 (Deluxe Edition) (2013) [FLAC]\CD 1\12 - The Monster (feat. Rihanna).wav

Peak level 99.6 %
Extraction speed 2.2 X
Track quality 100.0 %
Test CRC 5CCF6014
Copy CRC 5CCF6014
Track not present in AccurateRip database
Copy OK

Track 13

Filename C:\EAC Rips\Eminem - The Marshall Mathers LP 2 (Deluxe Edition) (2013) [FLAC]\CD 1\13 - So Far....wav

Peak level 98.8 %
Extraction speed 2.3 X
Track quality 100.0 %
Test CRC 2EE373DF
Copy CRC 2EE373DF
Track not present in AccurateRip database
Copy OK

Track 14

Filename C:\EAC Rips\Eminem - The Marshall Mathers LP 2 (Deluxe Edition) (2013) [FLAC]\CD 1\14 - Love Game (feat. Kendrick Lamar).wav

Peak level 98.8 %
Extraction speed 2.4 X
Track quality 100.0 %
Test CRC 8595435B
Copy CRC 8595435B
Track not present in AccurateRip database
Copy OK

Track 15

Filename C:\EAC Rips\Eminem - The Marshall Mathers LP 2 (Deluxe Edition) (2013) [FLAC]\CD 1\15 - Headlights (feat. Nate Ruess).wav

Peak level 98.8 %
Extraction speed 2.5 X
Track quality 100.0 %
Test CRC 679D7957
Copy CRC 679D7957
Track not present in AccurateRip database
Copy OK

Track 16

Filename C:\EAC Rips\Eminem - The Marshall Mathers LP 2 (Deluxe Edition) (2013) [FLAC]\CD 1\16 - Evil Twin.wav

Peak level 98.8 %
Extraction speed 2.6 X
Track quality 100.0 %
Test CRC 9712DA12
Copy CRC 9712DA12
Track not present in AccurateRip database
Copy OK

None of the tracks are present in the AccurateRip database

No errors occurred

End of status report

---- CUETools DB Plugin V2.1.3

[CTDB TOCID: OUuv.IhM2w41pgMNB.kKXEMI0xs-] found, Submit result: OUuv.IhM2w41pgMNB.kKXEMI0xs- has been confirmed
[61171bf6] (1/1) Accurately ripped

==== Log checksum 4F58D05234A8A709ECF9B532BBD83BACF29D50AA0F27549896B25387EF11310C ====


Exact Audio Copy V1.0 beta 3 from 29. August 2011

EAC extraction logfile from 4. November 2013, 19:11

Eminem / The Marshall Mathers LP 2

Used drive : HL-DT-STBDDVDRW GBC-H20L Adapter: 2 ID: 2

Read mode : Secure
Utilize accurate stream : Yes
Defeat audio cache : Yes
Make use of C2 pointers : No

Read offset correction : 667
Overread into Lead-In and Lead-Out : No
Fill up missing offset samples with silence : Yes
Delete leading and trailing silent blocks : No
Null samples used in CRC calculations : Yes
Used interface : Native Win32 interface for Win NT & 2000
Gap handling : Appended to previous track

Used output format : User Defined Encoder
Selected bitrate : 1024 kBit/s
Quality : High
Add ID3 tag : No
Command line compressor : C:\Program Files (x86)\Exact Audio Copy\Flac\flac.exe
Additional command line options : -8 -V -T "ARTIST=%artist%" -T "TITLE=%title%" -T "ALBUM=%albumtitle%" -T "DATE=%year%" -T "TRACKNUMBER=%tracknr%" -T "GENRE=%genre%" -T "PERFORMER=%albuminterpret%" -T "COMPOSER=%composer%" %haslyrics%--tag-from-file=LYRICS="%lyricsfile%"%haslyrics% -T "ALBUMARTIST=%albumartist%" -T "DISCNUMBER=%cdnumber%" -T "TOTALDISCS=%totalcds%" -T "TOTALTRACKS=%numtracks%" -T "COMMENT=%comment%" %source% -o %dest%

TOC of the extracted CD

Track | Start | Length | Start sector | End sector
---------------------------------------------------------
1 | 0:00.00 | 4:23.05 | 0 | 19729
2 | 4:23.05 | 3:56.49 | 19730 | 37478
3 | 8:19.54 | 4:53.32 | 37479 | 59485
4 | 13:13.11 | 4:25.02 | 59486 | 79362
5 | 17:38.13 | 6:31.31 | 79363 | 108718

Track 1

Filename C:\EAC Rips\Eminem - The Marshall Mathers LP 2 (Deluxe Edition) (2013) [FLAC]\CD 2\01 - Baby.wav

Pre-gap length 0:00:02.00

Peak level 98.8 %
Extraction speed 3.7 X
Track quality 100.0 %
Test CRC 1BA5513B
Copy CRC 1BA5513B
Track not present in AccurateRip database
Copy OK

Track 2

Filename C:\EAC Rips\Eminem - The Marshall Mathers LP 2 (Deluxe Edition) (2013) [FLAC]\CD 2\02 - Desperation (feat. Jamie N Commons).wav

Peak level 98.8 %
Extraction speed 3.9 X
Track quality 100.0 %
Test CRC A4EB9D49
Copy CRC A4EB9D49
Track not present in AccurateRip database
Copy OK

Track 3

Filename C:\EAC Rips\Eminem - The Marshall Mathers LP 2 (Deluxe Edition) (2013) [FLAC]\CD 2\03 - Groundhog Day.wav

Peak level 98.8 %
Extraction speed 4.3 X
Track quality 100.0 %
Test CRC 197189D1
Copy CRC 197189D1
Track not present in AccurateRip database
Copy OK

Track 4

Filename C:\EAC Rips\Eminem - The Marshall Mathers LP 2 (Deluxe Edition) (2013) [FLAC]\CD 2\04 - Beautiful Pain (feat. Sia).wav

Peak level 97.9 %
Extraction speed 4.7 X
Track quality 100.0 %
Test CRC 0AF5A5B3
Copy CRC 0AF5A5B3
Track not present in AccurateRip database
Copy OK

Track 5

Filename C:\EAC Rips\Eminem - The Marshall Mathers LP 2 (Deluxe Edition) (2013) [FLAC]\CD 2\05 - Wicked Ways.wav

Peak level 100.0 %
Extraction speed 5.3 X
Track quality 100.0 %
Test CRC F4CB6A9E
Copy CRC F4CB6A9E
Track not present in AccurateRip database
Copy OK

None of the tracks are present in the AccurateRip database

No errors occurred

End of status report

---- CUETools DB Plugin V2.1.3

[CTDB TOCID: 5_oD18AN82agTRwJIstNb.B2wmQ-] disk not present in database, Submit result: 5_oD18AN82agTRwJIstNb.B2wmQ- has been uploaded

==== Log checksum 5C833CB89EF8116C863F091248C9476232922A21619E3A6087788B2BFEF64F0A ====
Профиль  ЛС 
plushSTR

Стаж: 4 года 9 месяцев
Сообщений: 1
Откуда: 12312

Создавать темы plushSTR написал(а)
21-Мар-2018 20:58 (спустя 4 года 4 месяца)
Встаньте на раздачу
Профиль  ЛС 
Показать сообщения:     

Вы не можете начинать темы
Вы не можете отвечать на сообщения
Вы не можете редактировать свои сообщения
Вы не можете удалять свои сообщения
Вы не можете голосовать в опросах
Вы не можете прикреплять файлы к сообщениям
Вы не можете скачивать файлы

Текущее время: 08-Дек 22:07
Часовой пояс: UTC + 5