Планета обезьян: Революция / Dawn of the Planet of the Apes (Мэтт Ривз) [2014 г., Фантастика, боевик, драма, BDRemux 1080p] Dub Лицензия BD CEE, Ukrainian Лицензия BD CEE, Original

Автор Сообщение
stilvira ®

Стаж: 9 лет 9 месяцев
Сообщений: 237

Создавать темы stilvira ® написал(а)
30-Окт-2014 15:41
Планета обезьян: Революция / Dawn of the Planet of the Apes


«Молитесь за мир, готовьтесь к войне»


Год выпуска: 2014
Страна: США
Жанр: Фантастика, боевик, драма
Продолжительность: 02:10:24
Перевод: Профессиональный (полное дублирование) Лицензия BD CEE. Украинский (Лицензия BD CEE). Оригинальный (английский).
Субтитры: Russian, Ukrainian, English
Режиссер: Мэтт Ривз
В ролях: Энди Серкис, Джейсон Кларк, Гари Олдман, Кери Рассел, Тоби Кеббелл, Коди, Смит-МакФи, Кирк Асеведо, Ник Тёрстон, Терри Нотари, Карин Коновал.
Описание: Численность генетически модифицированных обезьян, возглавляемых Цезарем, продолжает увеличиваться, но обезьянам угрожают люди, которым удалось выжить во время ужасной эпидемии десятилетней давности. Поначалу между соперниками устанавливается хрупкий мир, но он оказывается недолговечным. Обезьяны и люди находятся на грани войны, в ходе которой станет понятно, кто из них в будущем станет безраздельно править планетой.
Доп. информация: Бюджет: $170 000 000.
Сборы в США: $208 375 237.
Сборы в мире: + $498 882 853 = $707 258 090.
Сборы в России: $21 080 688.
Премьера (мир): 26 июня 2014.
Премьера (РФ): 17 июля 2014, «Двадцатый Век Фокс СНГ» 3D.
Релиз на Blu-Ray: 20 ноября 2014, «Двадцатый Век Фокс СНГ».
Релиз на DVD: 20 ноября 2014, «Двадцатый Век Фокс СНГ».
Возраст: 12 + зрителям, достигшим 12 лет.
Детям до 13 лет просмотр не желателен.

Качество: BDRemux 1080p
Формат: MKV
Видео кодек: H.264
Аудио кодек: DTS, AC3, DTS-HD MA
Видео: 1920x1080, 23,976 fps, 25,1 mbps
Аудио 1: Rus, DTS, 48 kHz, 755 Kbps, 6 channels /Dub, Лицензия BD CEE/
Аудио 2: Ukr, AC3, 48 kHz, 448 Kbps, 6 channels /Ukrainian, Лицензия BD CEE/
Аудио 3: Eng, DTS-HD MA, 48 kHz, 1597 Kbps, 8 channels (DTS-Core: 48 kHz, 1510 Kbps, 6 channels) /Original/


General
Unique ID : 237905470370482085156286349899238566102 (0xB2FAED4B6A738C0BA6D06D9037A568D6)
Complete name : J:\end\Dawn of the Planet of the Apes 2014 (BDRemux 1080p).mkv
Format : Matroska
Format version : Version 2
File size : 26.0 GiB
Duration : 2h 10mn
Overall bit rate mode : Variable
Overall bit rate : 28.5 Mbps
Movie name : Dawn of the Planet of the Apes
Encoded date : UTC 2014-11-11 02:01:46
Writing application : mkvmerge v5.2.0 ('I can't explain') built on Dec 18 2011 18:12:03
Writing library : libebml v1.2.3 + libmatroska v1.3.0

Video #1
ID : 1
Format : AVC
Format/Info : Advanced Video Codec
Format profile : High@L4.1
Format settings, CABAC : Yes
Format settings, ReFrames : 4 frames
Codec ID : V_MPEG4/ISO/AVC
Duration : 2h 10mn
Bit rate mode : Variable
Bit rate : 25.1 Mbps
Maximum bit rate : 35.5 Mbps
Width : 1 920 pixels
Height : 1 080 pixels
Display aspect ratio : 16:9
Frame rate : 23.976 fps
Color space : YUV
Chroma subsampling : 4:2:0
Bit depth : 8 bits
Scan type : Progressive
Bits/(Pixel*Frame) : 0.506
Stream size : 22.9 GiB (88%)
Language : English
Default : Yes
Forced : No

Audio #2
ID : 2
Format : DTS
Format/Info : Digital Theater Systems
Codec ID : A_DTS
Duration : 2h 10mn
Bit rate mode : Constant
Bit rate : 755 Kbps
Channel(s) : 6 channels
Channel positions : Front: L C R, Side: L R, LFE
Sampling rate : 48.0 KHz
Bit depth : 24 bits
Compression mode : Lossy
Stream size : 704 MiB (3%)
Title : DUB BD CEE
Language : Russian
Default : Yes
Forced : No

Audio #3
ID : 3
Format : AC-3
Format/Info : Audio Coding 3
Mode extension : CM (complete main)
Format settings, Endianness : Big
Codec ID : A_AC3
Duration : 2h 10mn
Bit rate mode : Constant
Bit rate : 448 Kbps
Channel(s) : 6 channels
Channel positions : Front: L C R, Side: L R, LFE
Sampling rate : 48.0 KHz
Bit depth : 16 bits
Compression mode : Lossy
Stream size : 418 MiB (2%)
Title : DUB BD CEE
Language : Ukrainian
Default : No
Forced : No

Audio #4
ID : 4
Format : DTS
Format/Info : Digital Theater Systems
Format profile : MA / Core
Codec ID : A_DTS
Duration : 2h 10mn
Bit rate mode : Variable
Bit rate : 1 597 Kbps / 1 510 Kbps
Channel(s) : 8 channels / 6 channels
Channel positions : Front: L C R, Side: L R, Back: L R, LFE / Front: L C R, Side: L R, LFE
Sampling rate : 48.0 KHz
Bit depth : 24 bits
Compression mode : Lossless / Lossy
Title : Original
Language : English
Default : No
Forced : No

Text #5
ID : 5
Format : UTF-8
Codec ID : S_TEXT/UTF8
Codec ID/Info : UTF-8 Plain Text
Title : Forced
Language : Russian
Default : Yes
Forced : No

Text #6
ID : 6
Format : UTF-8
Codec ID : S_TEXT/UTF8
Codec ID/Info : UTF-8 Plain Text
Title : Full
Language : Russian
Default : No
Forced : No

Text #7
ID : 7
Format : UTF-8
Codec ID : S_TEXT/UTF8
Codec ID/Info : UTF-8 Plain Text
Title : Forced
Language : Ukrainian
Default : No
Forced : No

Text #8
ID : 8
Format : UTF-8
Codec ID : S_TEXT/UTF8
Codec ID/Info : UTF-8 Plain Text
Title : Full
Language : Ukrainian
Default : No
Forced : No

Text #9
ID : 9
Format : UTF-8
Codec ID : S_TEXT/UTF8
Codec ID/Info : UTF-8 Plain Text
Title : Full
Language : English
Default : No
Forced : No




Последний раз редактировалось: stilvira (2014-11-11 22:27), всего редактировалось 4 раз(а)
Профиль  ЛС 
Артуик

Стаж: 6 лет 11 месяцев
Сообщений: 9
Откуда: Уфа

Создавать темы Артуик написал(а)
04-Ноя-2014 20:02 (спустя 5 дней)
клевый фильм! заявляю как киноман)))
Профиль  ЛС 
Capone

Стаж: 10 лет
Сообщений: 27

Создавать темы Capone написал(а)
05-Ноя-2014 16:29 (спустя 20 часов)
УГ, почему то даже когда рембо стреляет (между прочим хоть как то целясь) возникают вопросы об ограниченности патронов, бессмертности и тд, а когда это делает обезьяна, просто весь фильм стреляя в воздух, то все норм)
Профиль  ЛС 
stilvira ®

Стаж: 9 лет 9 месяцев
Сообщений: 237

Создавать темы stilvira ® написал(а)
05-Ноя-2014 20:49 (спустя 4 часа)
Обновление на WEB-DL 1080p. Перевод: Профессиональный (полное дублирование) Лицензия (3D Blu Ray EUR). Украинский (Лицензия). Авторский (одноголосый закадровый) Д. Есарев. Оригинальный (английский).
Профиль  ЛС 
KrendeL

Стаж: 11 лет
Сообщений: 7

Создавать темы KrendeL написал(а)
06-Ноя-2014 11:55 (спустя 15 часов)
уважаемые подскажите пожалуйста,а когда можно будет глянуть этот фильмец в 3д?
Профиль  ЛС 
Vladeaglezz

Стаж: 7 лет 1 месяц
Сообщений: 54
Откуда: Оркск

Создавать темы Vladeaglezz написал(а)
08-Ноя-2014 15:08 (спустя 2 дня 3 часа)
дубляж как обычно убог, особенно у обезьян. Слишком правильный русский язык у них получился, как будто тот, кто переводил, ни разу с плохо говорящими на русском иностранцами не встречался, и акцент чистый у обезьян, ага. Просто слова ломанные.
Профиль  ЛС 
stilvira ®

Стаж: 9 лет 9 месяцев
Сообщений: 237

Создавать темы stilvira ® написал(а)
11-Ноя-2014 22:22 (спустя 3 дня)
Обновление на BDRemux 1080p. Перевод: Профессиональный (полное дублирование) Лицензия BD CEE. Украинский (Лицензия BD CEE). Оригинальный (английский).+Субтитры: Russian, Ukrainian, English.
Профиль  ЛС 
poni

Стаж: 10 лет
Сообщений: 78

Создавать темы poni написал(а)
11-Ноя-2014 23:27 (спустя 1 час 4 минуты)
В чём вообще "прикол" этой франшизы? Кто на это деньги даёт?
Профиль  ЛС 
Aрхангел

Стаж: 8 лет
Сообщений: 122
Откуда: Уфа

Создавать темы Aрхангел написал(а)
12-Ноя-2014 00:26 (спустя 59 минут)
А на раздачу кто-нибудь встанет?
Профиль  ЛС 
raser06

Стаж: 6 лет 11 месяцев
Сообщений: 6

Создавать темы raser06 написал(а)
29-Ноя-2014 00:14 (спустя 16 дней)
Фильм офигенный!!!!!!!!
Профиль  ЛС 
Doom703

Стаж: 10 лет
Сообщений: 52
Откуда: Оренбург

Создавать темы Doom703 написал(а)
07-Авг-2017 21:58 (спустя 2 года 8 месяцев)
раздайте,месяц скачать не могу
Профиль  ЛС 
Показать сообщения:     

Вы не можете начинать темы
Вы не можете отвечать на сообщения
Вы не можете редактировать свои сообщения
Вы не можете удалять свои сообщения
Вы не можете голосовать в опросах
Вы не можете прикреплять файлы к сообщениям
Вы не можете скачивать файлы

Текущее время: 05-Дек 20:22
Часовой пояс: UTC + 5