Титaник в 3Д / Titаnic 3D (Джеймс Кэмерон / James Cameron) [1997, Драма, Мелодрама, BDrip-AVC] Half SideBySide / Горизонтальная анаморфная стереопара

Автор Сообщение
iblis ®

Стаж: 9 лет
Сообщений: 13

Создавать темы iblis ® написал(а)
02-Сен-2012 12:03
Титaник | Titаnic
1997 (2012)
США (20th Century Fox, Paramount Pictures, Lightstorm Entertainment)
Драма, Мелодрама
03:14:54
Дубляж (1997) + 2xMVO + DVO + AVO
Джеймс Кэмерон / James Cameron
Джек Доусон - Леонардо ДиКаприо (Олег Куликович)
Роуз ДеВитт Бьюкейтер - Кейт Уинслет (Татьяна Иванова)
Кейлдон "Кэл" Хокли - Билли Зейн (Станислав Концевич)
Молли Браун - Кэти Бейтс (Елена Ставрогина)
Рут ДеВитт Бьюкейтер - Фрэнсис Фишер (Галина Чигинская)
Роуз (в старости) - Глория Стюарт (Людмила Ксенофонтова)
Брок Лаветт - Билл Пэкстон (Вадим Гущин)
Капитан Эдвард Джеймс Смит - Бернард Хилл (Анатолий Азо)
Спайсер Лавджой - Дэвид Уорнер (Геннадий Богачёв)
Томас Эндрюс - Виктор Гарбер (Николай Буров)
Брюс Исмей - Джонатан Хайд (Юрий Лазарев)
Лиззи Калверт - Сьюзи Эймис (Александра Кожевникова)
Льюис Бодайн - Льюис Абернати (Сергей Паршин)
Бобби Бьюэлл - Николас Каскон (Валерий Захарьев)
Анатолий Михайлович - Анатолий Сагалевич
Фабрицио - Дэнни Нуччи (Александр Баргман)
Томми Райан - Джейсон Бэрри (Сергей Паршин)
1-й офицер Мёрдок - Ивэн Стюарт (Анатолий Петров)
5-й офицер Гарольд Лоу - Йоан Гриффит
2-й офицер Лайтоллер - Джонатан Филлипс (Валерий Кухарешин)
Главный офицер Уайлд - Марк Линдсэй Чэпман
Квартирмейстер Роу - Ричард Грэхэм
Фильм о любви, которая потрясла весь мир и по праву может называться самым знаменитым фильмом мирового кинематографа. Звезды Голливуда Леонардо Ди Каприо и Кейт Уинслет блистают на экране в ролях молодых влюбленных Джека и Розы, которые находят друг друга в первом и последнем плавании "непотопляемого" "Титаника". Они не могли знать, что шикарный лайнер столкнется с айсбергом в холодных водах Северной Атлантики, и их страстная любовь превратится в схватку со смертью.
Премьера: 1 ноября 1997 (20 февраля 1998)
Бюджет: $240 000 000
Кассовые сборы: $2 183 672 302
Кинопоиск: Топ250 №50
Проверено на встроенном плейере
ТВ Samsung UE-C7000


Качество: BDrip (by z-man)
Контейнер: MKV
Формат 3D: Half SideBySide / Горизонтальная анаморфная стереопара
Порядок ракурсов: левый ракурс первый
Видео кодек: x264
Аудио кодек: AC3
Видео: AVC / 23,976 fps / 1920х1080p / 11.1 Mbps
Аудио:
#1 - Русский / AC3 / 48 KHz / 5.1 ch / 448 Kbps (Дубляж - 1997 г.)
#2 - Русский / AC3 / 48 KHz / 5.1 ch / 448 Kbps (MVO - НТВ+ [перевод Юрия Сербина, озвучка Галина Исхакова и Александр Гаврилин])
#3 - Русский / AC3 / 48 KHz / 5.1 ch / 384 Kbps (MVO - Киномания)
#4 - Русский / AC3 / 48 KHz / 5.1 ch / 448 Kbps (DVO - П. Гланц и И. Королева)
#5 - Русский / AC3 / 48 KHz / 5.1 ch / 448 Kbps (AVO - А. Гаврилов)
#6 - Английский / AC3 / 48 KHz / 5.1 ch / 640 Kbps (Original 2012 year)
Субтитры (SRT)
Вшитые softsub:
#1 - Русские Полные 1
#2 - Русские Полные 1
#3 - English Full
General
UniqueID : 237644939802505978853982330092192797772 (0xB2C8C025573C48818050834F0DC8144C)
Complete name : F:\Downloads\Titanic(3D)2012.halfSBS(RipZ-man)(RmxAsh61).mkv
Format : Matroska
File size : 19.3 GiB
Duration : 3h 14mn
Overall bit rate : 14.2 Mbps
Movie name : Titanic (3D) 2012 (Rip by z-man)(Remuxed by Ash61)
Encoded date : UTC 2012-09-01 18:57:35
Writing application : mkvmerge v3.4.0 ('Rapunzel') сборка от May 15 2010 09:38:20
Writing library : libebml v0.8.0 + libmatroska v0.9.0
Video
ID : 1
Format : AVC
Format/Info : Advanced Video Codec
Format profile : High@L4.1
Format settings, CABAC : Yes
Format settings, ReFrames : 4 frames
Codec ID : V_MPEG4/ISO/AVC
Duration : 3h 14mn
Bit rate : 11.1 Mbps
Width : 1 920 pixels
Height : 1 080 pixels
Display aspect ratio : 16:9
Frame rate : 23.976 fps
Color space : YUV
Chroma subsampling : 4:2:0
Bit depth : 8 bits
Scan type : Progressive
Bits/(Pixel*Frame) : 0.224
Stream size : 15.1 GiB (78%)
Title : BDrip by z-man
Writing library : x264 core 125 r2208 d9d2288
Encoding settings : cabac=1 / ref=4 / deblock=1:-3:-3 / analyse=0x3:0x113 / me=umh / subme=9 / psy=1 / psy_rd=1.00:0.15 / mixed_ref=1 / me_range=16 / chroma_me=1 / trellis=1 / 8x8dct=1 / cqm=0 / deadzone=21,11 / fast_pskip=1 / chroma_qp_offset=-3 / threads=18 / lookahead_threads=3 / sliced_threads=0 / nr=0 / decimate=1 / interlaced=0 / bluray_compat=0 / constrained_intra=0 / bframes=3 / b_pyramid=2 / b_adapt=1 / b_bias=0 / direct=3 / weightb=1 / open_gop=0 / weightp=2 / keyint=250 / keyint_min=23 / scenecut=40 / intra_refresh=0 / rc_lookahead=40 / rc=crf / mbtree=1 / crf=19.0 / qcomp=0.60 / qpmin=10 / qpmax=69 / qpstep=4 / vbv_maxrate=40000 / vbv_bufsize=30000 / crf_max=0.0 / nal_hrd=none / ip_ratio=1.40 / aq=1:1.00
Language : English
Audio #1
ID : 2
Format : AC-3
Format/Info : Audio Coding 3
Mode extension : CM (complete main)
Codec ID : A_AC3
Duration : 3h 14mn
Bit rate mode : Constant
Bit rate : 448 Kbps
Channel(s) : 6 channels
Channel positions : Front: L C R, Side: L R, LFE
Sampling rate : 48.0 KHz
Bit depth : 16 bits
Compression mode : Lossy
Stream size : 625 MiB (3%)
Title : Дубляж
Language : Russian
Audio #2
ID : 3
Format : AC-3
Format/Info : Audio Coding 3
Mode extension : CM (complete main)
Codec ID : A_AC3
Duration : 3h 14mn
Bit rate mode : Constant
Bit rate : 448 Kbps
Channel(s) : 6 channels
Channel positions : Front: L C R, Side: L R, LFE
Sampling rate : 48.0 KHz
Bit depth : 16 bits
Compression mode : Lossy
Stream size : 625 MiB (3%)
Title : MVO - НТВ+ (перевод Юрия Сербина, озвучка Галина Исхаковка и Александр Гаврилин)
Language : Russian
Audio #3
ID : 4
Format : AC-3
Format/Info : Audio Coding 3
Mode extension : CM (complete main)
Codec ID : A_AC3
Duration : 3h 14mn
Bit rate mode : Constant
Bit rate : 384 Kbps
Channel(s) : 6 channels
Channel positions : Front: L C R, Side: L R, LFE
Sampling rate : 48.0 KHz
Bit depth : 16 bits
Compression mode : Lossy
Stream size : 535 MiB (3%)
Title : MVO - Киномания
Language : Russian
Audio #4
ID : 5
Format : AC-3
Format/Info : Audio Coding 3
Mode extension : CM (complete main)
Codec ID : A_AC3
Duration : 3h 14mn
Bit rate mode : Constant
Bit rate : 448 Kbps
Channel(s) : 6 channels
Channel positions : Front: L C R, Side: L R, LFE
Sampling rate : 48.0 KHz
Bit depth : 16 bits
Compression mode : Lossy
Stream size : 625 MiB (3%)
Title : DVO - П. Гланц и И. Королева
Language : Russian
Audio #5
ID : 6
Format : AC-3
Format/Info : Audio Coding 3
Mode extension : CM (complete main)
Codec ID : A_AC3
Duration : 3h 14mn
Bit rate mode : Constant
Bit rate : 448 Kbps
Channel(s) : 6 channels
Channel positions : Front: L C R, Side: L R, LFE
Sampling rate : 48.0 KHz
Bit depth : 16 bits
Compression mode : Lossy
Stream size : 625 MiB (3%)
Title : AVO - А. Гаврилов
Language : Russian
Audio #6
ID : 7
Format : AC-3
Format/Info : Audio Coding 3
Mode extension : CM (complete main)
Codec ID : A_AC3
Duration : 3h 14mn
Bit rate mode : Constant
Bit rate : 640 Kbps
Channel(s) : 6 channels
Channel positions : Front: L C R, Side: L R, LFE
Sampling rate : 48.0 KHz
Bit depth : 16 bits
Compression mode : Lossy
Stream size : 892 MiB (5%)
Title : Original 2012
Language : English
Text #1
ID : 8
Format : UTF-8
Codec ID : S_TEXT/UTF8
Codec ID/Info : UTF-8 Plain Text
Title : Полные 1
Language : Russian
Text #2
ID : 9
Format : UTF-8
Codec ID : S_TEXT/UTF8
Codec ID/Info : UTF-8 Plain Text
Title : Полные 2
Language : Russian
Text #3
ID : 10
Format : UTF-8
Codec ID : S_TEXT/UTF8
Codec ID/Info : UTF-8 Plain Text
Title : Full
Language : English
Menu
00:00:00.000 : en:00:00:00.000
00:01:24.376 : en:00:01:24.376
00:04:39.988 : en:00:04:39.988
00:08:26.131 : en:00:08:26.131
00:10:46.771 : en:00:10:46.771
00:12:52.647 : en:00:12:52.647
00:16:52.428 : en:00:16:52.428
00:20:07.748 : en:00:20:07.748
00:23:38.876 : en:00:23:38.876
00:26:26.543 : en:00:26:26.543
00:29:03.367 : en:00:29:03.367
00:29:37.526 : en:00:29:37.526
00:34:59.931 : en:00:34:59.931
00:36:48.623 : en:00:36:48.623
00:42:59.160 : en:00:42:59.160
00:45:26.098 : en:00:45:26.098
00:47:11.620 : en:00:47:11.620
00:53:33.043 : en:00:53:33.043
00:56:47.988 : en:00:56:47.988
01:05:32.053 : en:01:05:32.053
01:10:19.966 : en:01:10:19.966
01:14:06.358 : en:01:14:06.358
01:16:10.691 : en:01:16:10.691
01:19:59.044 : en:01:19:59.044
01:22:50.507 : en:01:22:50.507
01:23:40.056 : en:01:23:40.056
01:28:21.629 : en:01:28:21.629
01:29:19.854 : en:01:29:19.854
01:32:52.275 : en:01:32:52.275
01:36:59.105 : en:01:36:59.105
01:44:41.150 : en:01:44:41.150
01:46:21.041 : en:01:46:21.041
01:50:12.257 : en:01:50:12.257
01:52:22.554 : en:01:52:22.554
01:53:55.480 : en:01:53:55.480
01:55:22.984 : en:01:55:22.984
01:56:12.033 : en:01:56:12.033
01:57:54.385 : en:01:57:54.385
02:06:39.493 : en:02:06:39.493
02:08:51.125 : en:02:08:51.125
02:11:23.235 : en:02:11:23.235
02:15:43.704 : en:02:15:43.704
02:19:44.611 : en:02:19:44.611
02:21:25.712 : en:02:21:25.712
02:25:29.914 : en:02:25:29.914
02:27:29.575 : en:02:27:29.575
02:29:08.424 : en:02:29:08.424
02:29:57.849 : en:02:29:57.849
02:33:32.688 : en:02:33:32.688
02:36:53.514 : en:02:36:53.514
02:38:35.032 : en:02:38:35.032
02:40:35.819 : en:02:40:35.819
02:45:01.793 : en:02:45:01.793
02:47:49.961 : en:02:47:49.961
02:49:23.680 : en:02:49:23.680
02:52:10.763 : en:02:52:10.763
02:53:42.480 : en:02:53:42.480
02:57:54.649 : en:02:57:54.649
02:59:36.459 : en:02:59:36.459
03:01:30.406 : en:03:01:30.406
03:03:14.802 : en:03:03:14.802
03:06:59.031 : en:03:06:59.031
03:07:20.798 : en:03:07:20.798
Профиль  ЛС 
FraY11111

Стаж: 9 лет 3 месяца
Сообщений: 14
Откуда: ??

Создавать темы FraY11111 написал(а)
03-Сен-2012 18:22 (спустя 1 день 6 часов)
Титаник в 3Д ты ли это???Не уж то дождался!!!!
Профиль  ЛС 
marat4

Стаж: 10 лет
Сообщений: 67

Создавать темы marat4 написал(а)
03-Сен-2012 18:44 (спустя 22 минуты)
Молодец! 5 за оформление!
Профиль  ЛС 
mutabor1985

Стаж: 10 лет
Сообщений: 6
Откуда: Орск

Создавать темы mutabor1985 написал(а)
04-Сен-2012 15:40 (спустя 20 часов)
обязательно посмотрю!!!автору спасибо
Профиль  ЛС 
WALKERROOKER

Стаж: 7 лет 10 месяцев
Сообщений: 10
Откуда: Russia

Создавать темы WALKERROOKER написал(а)
30-Авг-2013 18:13 (спустя 11 месяцев 26 дней)
скорости!
Профиль  ЛС 
АББАДОН

Стаж: 10 лет
Сообщений: 83
Откуда: Russia

Создавать темы АББАДОН написал(а)
26-Окт-2013 01:11 (спустя 1 месяц 26 дней)
Замечательный фильм, спасибо автору раздачи! Други подскажите, имею 1-й день монитор Asus VG278HR c 3D с очками GeForse2 в комплекте, с моником идет на DVD 3D плеер, вот только не как не могу эту раздачу в стерео режиме запустить, подскажите как, уж очень хочется фильму посмотреть!!!
Профиль  ЛС 
АББАДОН

Стаж: 10 лет
Сообщений: 83
Откуда: Russia

Создавать темы АББАДОН написал(а)
28-Окт-2013 19:58 (спустя 2 дня 18 часов)
Разобрался и посмотрел, спасибо FAQ и автору раздачи!
Профиль  ЛС 
к0тён0к

Стаж: 10 лет
Сообщений: 11
Откуда: Russia

Создавать темы к0тён0к написал(а)
20-Дек-2013 20:45 (спустя 1 месяц 23 дня)
marat4
Профиль  ЛС 
RuZoN 1988

Стаж: 6 лет 2 месяца
Сообщений: 6

Создавать темы RuZoN 1988 написал(а)
15-Янв-2014 14:42 (спустя 25 дней)
3D эффекты есть?
Профиль  ЛС 
Показать сообщения:     

Вы не можете начинать темы
Вы не можете отвечать на сообщения
Вы не можете редактировать свои сообщения
Вы не можете удалять свои сообщения
Вы не можете голосовать в опросах
Вы не можете прикреплять файлы к сообщениям
Вы не можете скачивать файлы

Текущее время: 21-Ноя 00:06
Часовой пояс: UTC + 5